Тэнти - лишний! (ТВ-2) / Shin Tenchi Muyou! / Tenchi in Tokyo (Такамото Нобухиро) [TV] [26 из 26] [без хардсаба] [JAP+SUB] [1997, приключения, комедия, романтика, фантастика, DVDRip] 

Цитировать
Тэнти - лишний! (ТВ-2) / Shin Tenchi Muyou! / Tenchi in Tokyo- Страна: Япония
Год выпуска: 1997
Жанр: приключения, комедия, романтика, фантастика
Тип: TV
Продолжительность: 26 эп. по ~23 мин-Режиссёр: Такамото Нобухиро
Сценарий: Сэкидзима Маёри
Студия: AIC-Без озвучки-Субтитры:
русские (внешние) SRT полные
от Kairel [Клуб "ХЕНШИН"]-Описание: Продолжение ТВ-сериала "Тэнти - лишний!".
Тэнти переезжает в Токио и поступает в старшую школу. Но его девушки и здесь с ним, и к ним прибавляется еще одна - его новая одноклассница по имени Сакуя, кажется, не обладающая никакими сверхспособностями, но очень желающая женить на себе Тэнти...
Образы персонажей и графическое решение снова претерпели изменения. Юмора стало еще больше, количество научной фантастики сократилось до минимума.-Информационные ссылки: AniDB | MyAnimeList | World Art-

В каком порядке лучше смотреть:

#01 Тэнти - лишний! Рё-о-ки - OAV (6 эп.), оригинальный сериал, 1992
#02 Тэнти - лишний! Ночь перед Карнавалом - OAV (1 эп.), 7-й эпизод оригинального сериала, 1993
#03 Тэнти - лишний! Рё-о-ки 2 - OAV (6 эп.), 8-13 эпизоды оригинального сериала, 1994
#04 Тэнти - лишний! Рё-о-ки 3 - OAV (6 эп. + спэшл), продолжение оригинального сериала, 2003
#05 Тэнти - лишний! Миссия Михоси - OAV (1 эп.), spinoff (ответвление сюжета) оригинального сериала, 1994
#06 Тэнти - лишний! [ТВ-1] - ТВ (26 эп.), ремейк оригинального сериала, 1995
#07 Тэнти - лишний! (фильм первый) - п/ф, дополнение "Вселенной Тэнти", 1996
#08 Тэнти - лишний! (фильм второй) - п/ф, ремейк оригинального сериала, 1997
#09 Тэнти - лишний! (фильм третий) - п/ф, продолжение первого фильма, 1999
#10 Тэнти - лишний! [ТВ-2] - ТВ (26 эп.), ремейк оригинального сериала, 1997
#11 Тэнти - лишний! [ТВ-3] - ТВ (26 эп.), spinoff (ответвление сюжета) оригинального сериала, 2002
#12 Иной мир – легенда Святых Рыцарей - OVA (13 эп.), spinoff (ответвление сюжета), 2009
#13 Тэнти - лишний! Любовь - ТВ (50 эп. + 10 эп.-коллажей), развитие вселенной, 2014
#14 Тэнти - лишний! Рё-о-ки 4 - OVA (4 эп.), развитие вселенной, 2016-Кому интересно:
#1 Девочка-волшебница Красотка Самми OVA - OVA (3 эп.), начало цикла, 1995
#2 Девочка-волшебница Красотка Самми [ТВ] - ТВ (26 эп.), ремейк, 1996
#3 Девочка-волшебница Красотка Самми: Бонус-театр - OVA (6 эп.), дополнение, 1997-На трекере также есть другие варианты раздач
-Качество: DVDRip (R2J)
Релиз/Автор рипа: Saier
Совместимость с бытовыми плеерами: Нет
Наличие линковки: Нет
Тип видео: без хардсаба
Формат: MKV
Видео: HEVC, 960х720, (4/3), ~2200кбит/с, 23,976fps, 10 bit
Аудио японская - AC3, 2 ch, 448кбит/с, 48000Hz-

Инструкция по просмотру

* Чтобы смотреть 10-битное видео (10bit), необходимо, исходя из ваших предпочтений используемого проигрывателя, воспользоваться
этой инструкцией.
* Чтобы смотреть с субтитрами, необходимо из папки Rus subs переписать файлы в папку, где находятся видеофайлы. В большинстве плееров, одноимённые субтитры подключатся автоматически.
-

Список эпизодов

01. Separation Anxiety
02. Four's a Crowd
03. Long Distance Lunacy
04. The Eternal Pledge
05. Money! Money! Money!
06. Play Date
07. The Day We Met
08. Tenchi Anniversary
09. The Guardians of Old
10. Ryoko's Big Date
11. Moon Mission
12. Stupid Cupid
13. The Eye of the Destroyer
14. Tokyo or Bust!
15. Love Match
16. Carnival
17. Drifting Away
18. Game Over
19. The Lonely Princess
20. Old Friends
21. Real Friends
22. Sakuya's Secret
23. Here, There and Everywhere
24. Yugi's Shadow
25. The End of Time
26. Payback
-

Отличия

http://rutracker.org/forum/viewtopic.php?t=1487211
http://rutracker.org/forum/viewtopic.php?t=421307
- лучше качество видео

Сравнения

Тут
-Релиз Ramm
-Релиз mbiga
-

Скриншоты

-

MediaInfo

Общее
Уникальный идентификатор : 185433065946693524208031666137651888305 (0x8B811C042B7BED10AB809A754BE640B1)
Полное имя : C:\Торенты №1\Tenchi Muyo! TV-2 [DVDRip 720p]\[Saier] Shin Tenchi Muyo! [10][DVD Ma10p_720p AC3 Chap].mkv
Формат : Matroska
Версия формата : Version 2
Размер файла : 453 Мбайт
Продолжительность : 23 м. 11 с.
Общий поток : 2728 Кбит/сек
Дата кодирования : UTC 2018-07-15 11:59:08
Программа кодирования : mkvmerge v2.9.7 ('Tenderness') built on Jul 1 2009 18:43:35
Библиотека кодирования : libebml v0.7.7 + libmatroska v0.8.1
Видео
Идентификатор : 1
Формат : HEVC
Формат/Информация : High Efficiency Video Coding
Профиль формата : Main 10@L3.1@Main
Идентификатор кодека : V_MPEGH/ISO/HEVC
Продолжительность : 23 м. 11 с.
Битрейт : 2226 Кбит/сек
Ширина : 960 пикселей
Высота : 720 пикселей
Соотношение сторон : 4:3
Режим частоты кадров : Постоянный
Частота кадров : 23,976 (24000/1001) кадра/сек
Цветовое пространство : YUV
Субдискретизация насыщенности : 4:2:0
Битовая глубина : 10 бит
Бит/(Пиксели*Кадры) : 0.134
Размер потока : 369 Мбайт (82%)
Библиотека кодирования : x265 2.6+5-g232492041+15:[Windows][GCC 7.1.0][64 bit] Asuna 10bit
Настройки программы : cpuid=1173503 / frame-threads=4 / numa-pools=16 / wpp / no-pmode / no-pme / no-psnr / no-ssim / log-level=2 / input-csp=1 / input-res=960x720 / interlace=0 / total-frames=33374 / level-idc=0 / high-tier=1 / uhd-bd=0 / ref=4 / no-allow-non-conformance / no-repeat-headers / no-annexb / no-aud / no-hrd / info / hash=0 / no-temporal-layers / no-open-gop / min-keyint=1 / keyint=360 / bframes=6 / b-adapt=2 / b-pyramid / bframe-bias=0 / rc-lookahead=80 / lookahead-slices=0 / scenecut=40 / no-intra-refresh / ctu=32 / min-cu-size=8 / no-rect / no-amp / max-tu-size=32 / tu-inter-depth=3 / tu-intra-depth=3 / limit-tu=4 / rdoq-level=2 / dynamic-rd=0.00 / no-ssim-rd / signhide / no-tskip / nr-intra=0 / nr-inter=0 / no-constrained-intra / no-strong-intra-smoothing / max-merge=4 / limit-refs=1 / limit-modes / me=3 / subme=3 / merange=44 / temporal-mvp / weightp / weightb / no-analyze-src-pics / deblock=-1:-1 / no-sao / no-sao-non-deblock / rd=4 / no-early-skip / rskip / no-fast-intra / no-tskip-fast / no-cu-lossless / b-intra / no-splitrd-skip / rdpenalty=0 / psy-rd=2.00 / psy-rdoq=3.00 / no-rd-refine / analysis-reuse-mode=0 / no-lossless / cbqpoffs=-2 / crqpoffs=-2 / rc=crf / crf=18.0000 / qcomp=0.65 / qpstep=4 / stats-write=0 / stats-read=0 / ipratio=1.40 / pbratio=1.20 / aq-mode=2 / aq-strength=0.80 / cutree / zone-count=0 / no-strict-cbr / qg-size=32 / no-rc-grain / qpmax=69 / qpmin=0 / no-const-vbv / sar=0 / overscan=0 / videoformat=5 / range=0 / colorprim=2 / transfer=2 / colormatrix=1 / chromaloc=0 / display-window=0 / max-cll=0,0 / min-luma=0 / max-luma=1023 / log2-max-poc-lsb=8 / vui-timing-info / vui-hrd-info / slices=1 / no-opt-qp-pps / no-opt-ref-list-length-pps / no-multi-pass-opt-rps / scenecut-bias=0.05 / no-opt-cu-delta-qp / no-aq-motion / no-hdr / no-hdr-opt / no-dhdr10-opt / analysis-reuse-level=5 / scale-factor=0 / refine-intra=0 / refine-inter=0 / refine-mv=0 / no-limit-sao / ctu-info=0 / no-lowpass-dct / refine-mv-type=0 / copy-pic=1
Язык : Japanese
Default : Да
Forced : Нет
Цветовой диапазон : Limited
Коэффициенты матрицы : BT.709
Аудио
Идентификатор : 2
Формат : AC-3
Формат/Информация : Audio Coding 3
Идентификатор кодека : A_AC3
Продолжительность : 23 м. 11 с.
Вид битрейта : Постоянный
Битрейт : 448 Кбит/сек
Каналы : 2 канала
Расположение каналов : Front: L R
Частота : 48,0 КГц
Частота кадров : 31,250 кадров/сек (1536 SPF)
Битовая глубина : 16 бит
Метод сжатия : С потерями
Размер потока : 74,3 Мбайт (16%)
Язык : Japanese
ServiceKind/String : Complete Main
Default : Да
Forced : Нет
Меню
00:00:00.000 : en:Opening
00:01:30.000 : en:A Part
00:10:41.100 : en:B Part
00:21:11.972 : en:Ending
00:22:39.235 : en:Preview
-
Вы не можете начинать темы
Вы не можете отвечать на сообщения
Вы не можете редактировать свои сообщения
Вы не можете удалять свои сообщения
Вы не можете голосовать в опросах
Вы не можете прикреплять файлы к сообщениям
Вы можете скачивать файлы
!ВНИМАНИЕ!

Сайт не предоставляет электронные версии произведений, а занимается лишь коллекционированием и каталогизацией ссылок, присылаемых и публикуемых на форуме нашими читателями. Если вы являетесь правообладателем какого-либо представленного материала и не желаете, чтобы ссылка на него находилась в нашем каталоге, свяжитесь с нами, и мы незамедлительно удалим ее. Файлы для обмена на трекере предоставлены пользователями сайта, и администрация не несет ответственности за их содержание. Просьба не заливать файлы, защищенные авторскими правами, а также файлы нелегального содержания!

Искали программы, игры, дополнения, музыка mp3, аниме, аудио книги, журналы? Добро пожаловать на свободный торрент трекер Torrents, у нас можно скачать бесплатно, без смс и регистрации и прочих ограничений лучшие, отборные сборки программ, игр. Скачать торрентом не составит труда даже не опытному пользователю. Раздачи ежедневно обновляются, только лучшие и качественные раздачи, подробные описания и скриншоты. Огромная коллекция программ для работы со звуком, графикой, дизайном, а так же множество плагинов и инструментов к ним с подробной инструкцией и рекомендациями. Прошивки для навигаторов, карты. Разнообразные игры, для Windows, Linux. В коллекцие есть и старые игры любых жанров, Rpg, Action, Shooter, strategy Множество дополнений, модификаций, сценариев для популярных игр в жанре экш, рпг, гонки, стратегии, логические игры. Множество аддонов и сценариев для Microsoft Flight Simulator Большая коллекция книг, учебников. Если нет возможности купить печатное издание - смело скачивайте цифровую версию книги или, быть может, журнала. Не любите читать - можно загрузить бесплатно аудикнигу. Для веб дизайнеров и программистов так же найдется множество специализированного софта, таких как: редакторы с подсветкой, среды программирования, компоненты, системы управления базами данных, разнообразные скрипты и шаблоны. Не так давно у нас появился материал для автолюбителей и владельцев мото - оригинальные и неоригинальные каталоги запчастей, книги и журналы по ремонту и обслуживанию, видеоуроки, статьи по чип тюнингу, прошивкам. Процедура получения контента элементарная, достаточно просто скачать торрент файл и добавить его в загрузку в вашем торрент клиенте. Если у вас нет специального торрент клиента, вы можете его скачать у нас.