Белый Клык: История о Белом Клыке / Shiroi Kiba: White Fang Monogatari [Special] [1 из 1] [Без хардсаба] [RUS(int)+JAP+SUB] [1982, приключения, драма, HDTVRip] 

Цитировать
Белый Клык: История о Белом Клыке / Shiroi Kiba: White Fang Monogatari
Страна: Япония
Год выпуска: 1982
Жанр:приключения, драма,
Тип:Special-Продолжительность: 73 мин.
Автор оригинала: Джек Лондон
Режиссер: Ёсикава Содзи
Студия: -Перевод: Nika Elrik [YakuSub Studio]; Редактура: Harushechka [YakuSub Studio]
Озвучивание: Закадровое, двухголосое, (муж., жен) Sad_Kit & Milirina[Anything Group]
Работа со звуком: Sad_Kit-Описание:
"История рассказывает о том, как единственный оставшийся в живых щенок, одноглазого волка и полусобаки-полуволка Кичи, встречает индейского мальчика Мит-Са, который мечтал иметь щенка, но не имел такой возможности. Мать щенка, бросается на его защиту, так же как и отец мальчика. Во время своеобразного противостояния родителей, Серый Бобр, отец мальчика, узнаёт в матери щенка собаку, которая была у него несколько лет назад, а затем, во время голода, убежала в лес и стала жить с волками. Кичи возвращается к своему старому хозяину, и мечта Мит-Са осуществляется, и теперь у него появляется собственная собака. Он дал щенку кличку Белый Клык. Теперь мальчику и его верному другу предстоит пережить не мало приключений.© Sad_Kit-World Art | Anidb | My Anime List-Качество: HDTVRip
Тип релиза: без хардсаба
Формат видео: MKV
Наличие линковки: Нет
Релиз/Автор рипа: [Orphan]
Видео: AVC, 768x576, 1 119 kb/s, 23.976 fps, 8 bit
Аудио 1: RUS, AAC, 48000 Hz, ~129 Kbps, 2 ch Язык:Русский (в составе контейнера); Озвучка: Закадровая, двухголосая, (жен., муж.) Milirina & Sad_Kit [Anything Group]
Аудио 2: JAP, AAC, 48000 Hz, ~140 Kbps, 2 ch Язык:Японский (в составе контейнера)
Субтитры 1: В составе контейнера (Надписи); Язык: Русский; Перевод: Nika Elrik [YakuSub Studio]; Редактура: Harushechka [YakuSub Studio]
Субтитры 2:В составе контейнера (Полные); Язык:Русский; Перевод: Nika Elrik [YakuSub Studio]; Редактура: Harushechka [YakuSub Studio]

Подробные тех. данные

MediaInfo

GeneralUnique ID                   : 289756556829501718667209376183108625532 (0xD9FD153B6D8B67FD0243B7355DE9E47C)Complete name               : Shiroi Kiba [Anything Group]\[Anything Group] Shiroi Kiba White Fang Monogatari.mkvFormat                      : MatroskaFormat version              : Version 4 / Version 2File size                   : 728 MiBDuration                    : 1 h 13 minOverall bit rate            : 1 390 kb/sMovie name                  : [Orphan] Shiroi Kiba White Fang MonogatariEncoded date                : UTC 2018-10-02 05:36:24Writing application         : mkvmerge v25.0.0 ('Prog Noir') 64-bitWriting library             : libebml v1.3.6 + libmatroska v1.4.9Cover                       : YesAttachments                 : cover.jpg
VideoID : 1Format : AVCFormat/Info : Advanced Video CodecFormat profile : High@L4.1Format settings : CABAC / 16 Ref FramesFormat settings, CABAC : YesFormat settings, ReFrames : 16 framesCodec ID : V_MPEG4/ISO/AVCDuration : 1 h 13 minBit rate : 1 119 kb/sWidth : 768 pixelsHeight : 576 pixelsDisplay aspect ratio : 4:3Frame rate mode : ConstantFrame rate : 23.976 (24000/1001) FPSColor space : YUVChroma subsampling : 4:2:0Bit depth : 8 bitsScan type : ProgressiveBits/(Pixel*Frame) : 0.105Stream size : 586 MiB (80%)Title : VideoWriting library : x264 core 129 r2245+729M 1a52e03Encoding settings : cabac=1 / ref=16 / deblock=1:0:0 / analyse=0x3:0x133 / me=umh / subme=10 / psy=1 / fade_compensate=0.00 / psy_rd=1.00:0.00 / mixed_ref=1 / me_range=24 / chroma_me=1 / trellis=2 / 8x8dct=1 / cqm=0 / deadzone=21,11 / fast_pskip=1 / chroma_qp_offset=-2 / threads=6 / lookahead_threads=1 / sliced_threads=0 / nr=0 / decimate=1 / interlaced=0 / bluray_compat=0 / constrained_intra=0 / fgo=0 / bframes=8 / b_pyramid=2 / b_adapt=2 / b_bias=0 / direct=3 / weightb=1 / open_gop=0 / weightp=2 / keyint=250 / keyint_min=23 / scenecut=40 / intra_refresh=0 / rc_lookahead=60 / rc=crf / mbtree=1 / crf=19.0 / qcomp=0.60 / qpmin=0 / qpmax=69 / qpstep=4 / ip_ratio=1.40 / aq=1:1.00Default : YesForced : NoColor range : LimitedColor primaries : BT.709Transfer characteristics : BT.709Matrix coefficients : BT.709
Audio #1ID : 2Format : AACFormat/Info : Advanced Audio CodecFormat profile : LCCodec ID : A_AAC-2Duration : 1 h 13 minBit rate : 129 kb/sChannel(s) : 2 channelsChannel positions : Front: L RSampling rate : 48.0 kHzFrame rate : 46.875 FPS (1024 SPF)Compression mode : LossyStream size : 67.3 MiB (9%)Title : [Anything Group]Language : RussianDefault : YesForced : Yes
Audio #2ID : 4Format : AACFormat/Info : Advanced Audio CodecFormat profile : LCCodec ID : A_AAC-2Duration : 1 h 13 minBit rate : 140 kb/sChannel(s) : 2 channelsChannel positions : Front: L RSampling rate : 48.0 kHzFrame rate : 46.875 FPS (1024 SPF)Compression mode : LossyStream size : 73.3 MiB (10%)Title : Japanese audioLanguage : JapaneseDefault : NoForced : No
Text #1ID : 3Format : ASSCodec ID : S_TEXT/ASSCodec ID/Info : Advanced Sub Station AlphaDuration : 1 h 13 minBit rate : 8 b/sCount of elements : 81Compression mode : LosslessStream size : 4.64 KiB (0%)Title : [YakuSubs] (Надписи)Language : RussianDefault : YesForced : No
Text #2ID : 5Format : ASSCodec ID : S_TEXT/ASSCodec ID/Info : Advanced Sub Station AlphaDuration : 1 h 13 minBit rate : 120 b/sCount of elements : 849Compression mode : LosslessStream size : 64.5 KiB (0%)Title : [YakuSubs] (Полные)Language : RussianDefault : NoForced : No

AvDump

Shiroi Kiba [Anything Group]\[Anything Group] Shiroi Kiba White Fang Monogatari.mkv
Duration: 01:13:16 (4395.74) Track #1: video (Video) lang: und (1) codc: V_MPEG4/ISO/AVC -> H264/AVC (22) reso: 768x576 -> Unknown (aka not common) fram: 23.976025 fps rate: 1119 kbps (1118.511353) dura: 01:13:14 (4393.931152) size: 585.87 MB (614332760) Track #2: audio ([Anything Group]) lang: rus -> Russian (15) codc: A_AAC -> AAC (9) chan: 2 -> Stereo samp: 48000 Hz rate: 129 kbps (128.97) dura: 01:13:14 (4394.24) size: 67.56 MB (70839570) Track #3: subtitles ([YakuSubs] (Надписи)) lang: rus -> Russian (15) type: S_TEXT/ASS -> ASS (5) size: 4.64 KB (4751) Track #4: audio (Japanese audio) lang: jpn -> Japanese (2) codc: A_AAC -> AAC (9) chan: 2 -> Stereo samp: 48000 Hz rate: 140 kbps (140.45) dura: 01:13:14 (4393.90) size: 73.57 MB (77141253) Track #5: subtitles ([YakuSubs] (Полные)) lang: rus -> Russian (15) type: S_TEXT/ASS -> ASS (5) size: 64.50 KB (66044) Sizes: (check sanity) disk: 728.30 MB (763674992) atts: 83.47 KB (85476) trac: 727.07 MB (762384378) [based on track size] bitr: 726.99 MB (762309039) [based on bitrate] tdif: 1.15 MB (1205138) 0.15% bdif: 1.22 MB (1280476) 0.16%OK 0.34.00 - 080318 OK (MediaInfoLib - v0.7.5.2 CVS)

Скриншоты

Отличия

http://rutracker.org/forum/viewtopic.php?t=5623107 - Наличие Озвучки
Вы не можете начинать темы
Вы не можете отвечать на сообщения
Вы не можете редактировать свои сообщения
Вы не можете удалять свои сообщения
Вы не можете голосовать в опросах
Вы не можете прикреплять файлы к сообщениям
Вы можете скачивать файлы
!ВНИМАНИЕ!

Сайт не предоставляет электронные версии произведений, а занимается лишь коллекционированием и каталогизацией ссылок, присылаемых и публикуемых на форуме нашими читателями. Если вы являетесь правообладателем какого-либо представленного материала и не желаете, чтобы ссылка на него находилась в нашем каталоге, свяжитесь с нами, и мы незамедлительно удалим ее. Файлы для обмена на трекере предоставлены пользователями сайта, и администрация не несет ответственности за их содержание. Просьба не заливать файлы, защищенные авторскими правами, а также файлы нелегального содержания!

Искали программы, игры, дополнения, музыка mp3, аниме, аудио книги, журналы? Добро пожаловать на свободный торрент трекер Torrents, у нас можно скачать бесплатно, без смс и регистрации и прочих ограничений лучшие, отборные сборки программ, игр. Скачать торрентом не составит труда даже не опытному пользователю. Раздачи ежедневно обновляются, только лучшие и качественные раздачи, подробные описания и скриншоты. Огромная коллекция программ для работы со звуком, графикой, дизайном, а так же множество плагинов и инструментов к ним с подробной инструкцией и рекомендациями. Прошивки для навигаторов, карты. Разнообразные игры, для Windows, Linux. В коллекцие есть и старые игры любых жанров, Rpg, Action, Shooter, strategy Множество дополнений, модификаций, сценариев для популярных игр в жанре экш, рпг, гонки, стратегии, логические игры. Множество аддонов и сценариев для Microsoft Flight Simulator Большая коллекция книг, учебников. Если нет возможности купить печатное издание - смело скачивайте цифровую версию книги или, быть может, журнала. Не любите читать - можно загрузить бесплатно аудикнигу. Для веб дизайнеров и программистов так же найдется множество специализированного софта, таких как: редакторы с подсветкой, среды программирования, компоненты, системы управления базами данных, разнообразные скрипты и шаблоны. Не так давно у нас появился материал для автолюбителей и владельцев мото - оригинальные и неоригинальные каталоги запчастей, книги и журналы по ремонту и обслуживанию, видеоуроки, статьи по чип тюнингу, прошивкам. Процедура получения контента элементарная, достаточно просто скачать торрент файл и добавить его в загрузку в вашем торрент клиенте. Если у вас нет специального торрент клиента, вы можете его скачать у нас.