Девичья Сила OVA-6 / Gall Force: The Revolution / [OVA] [4 из 4] [Без хардсаба] [JAP+SUB] [1996, приключения, фантастика, LDRip] 

Цитировать
Девичья Сила OVA-6 / Gall Force: The Revolution / ガルフォース The Revolution
Страна: Япония
Год выпуска: 1996
Жанр: приключения, фантастика
Тип: OVA
Продолжительность: 4 эп. по 28 мин.
Режиссер: Фукусима Хироюки
Студия: ANIMATE, AIC
Описание: В эпическом космическом сражении сошлись Западные и Восточные Войска. В их рядах сражаются наёмницы из Соленоидной группировки, расы женщин-воительниц. В самый разгар сражения, Западные Войска перехватили передачу с неизвестного планетоида. Команда Девичьей Силы покинула поле боя и отправилась исследовать эту луну до того, как её уничтожит Планетарный Разрушитель Восточных Войск. Вслед за командой Рэбби отправилась Лафи, пилот-ас Восточных Войск.
© AnimeNfo
Качество: LDRip
Тип релиза: Без хардсаба
Формат видео: MKV
Релиз/Автор рипа: Odyssey Anime & Kotomi
Видео: XviD, 640x480, 1 423 kb/s, 23.976 fps, 8 bit
Аудио: jpn(int), MP3, 149 kb/s, 48.0 kHz, 2 ch
Субтитры 1: eng(int), ASS, перевод: Odyssey Anime
Субтитры 2: eng(int), SRT, перевод: Odyssey Anime
Субтитры 3: rus(ext), ASS, перевод: Poccu9i

Серия состоит из

#1 Девичья Сила - Фильм - п/ф, начало цикла, 1986
#2 Девичья Сила OVA-1 - OVA (1 эп.), продолжение, 1987
#3 Девичья Сила OVA-2 - OVA (1 эп.), продолжение, 1988
#4 Девичья Сила OVA-3 - OVA (1 эп.), продолжение, 1989
#5 Девичья Сила OVA-4 - OVA (3 эп.), продолжение, 1989
#6 Девичья Сила OVA-5 - OVA (2 эп.), продолжение, 1991
#7 Девичья Сила OVA-6 - OVA (4 эп.), ремейк первой части серии, 1996

Подробные тех. данные

GeneralUnique ID                                : 246554992205411885276070250145652954303 (0xB97CC3A5681F9129AAA1C5E0FB0054BF)Complete name                            : V:\1\MR\Gall Force\7\[Kotomi][Odyssey] Gall Force The Revolution [LDRip]\[Kotomi][Odyssey] Gall Force The Revolution 1 - WAR STORM - [LD][XviD][MP3] [8DD4C21F].mkvFormat                                   : MatroskaFormat version                           : Version 2File size                                : 312 MiBDuration                                 : 27 min 13 sOverall bit rate mode                    : VariableOverall bit rate                         : 1 604 kb/sMovie name                               : [Kotomi][Odyssey] Gall Force The Revolution - WAR STORM - [LD][XviD][MP3].mkvEncoded date                             : UTC 2010-08-04 16:35:18Writing application                      : mkvmerge v4.2.0 ('No Talking') built on Aug  1 2010 22:50:30Writing library                          : libebml v1.0.0 + libmatroska v1.0.0Attachments                              : arial.ttf / arial__0.ttf / DejaVuSans.ttf / linkin.ttf
VideoID : 1Format : MPEG-4 VisualFormat settings, BVOP : NoFormat settings, QPel : NoFormat settings, GMC : No warppointsFormat settings, Matrix : Default (H.263)Codec ID : V_MS/VFW/FOURCC / XVIDCodec ID/Hint : XviDDuration : 27 min 13 sBit rate : 1 423 kb/sWidth : 640 pixelsHeight : 480 pixelsDisplay aspect ratio : 4:3Frame rate mode : ConstantFrame rate : 23.976 (23976/1000) FPSColor space : YUVChroma subsampling : 4:2:0Bit depth : 8 bitsScan type : ProgressiveCompression mode : LossyBits/(Pixel*Frame) : 0.193Stream size : 277 MiB (89%)Title : Gall Force The Revolution War StormLanguage : JapaneseDefault : YesForced : Yes
AudioID : 2Format : MPEG AudioFormat version : Version 1Format profile : Layer 3Format settings : Joint stereo / MS StereoCodec ID : A_MPEG/L3Codec ID/Hint : MP3Duration : 27 min 13 sBit rate mode : VariableBit rate : 149 kb/sMinimum bit rate : 96.0 kb/sChannel(s) : 2 channelsSampling rate : 48.0 kHzFrame rate : 41.667 FPS (1152 SPF)Compression mode : LossyStream size : 29.0 MiB (9%)Title : Gall Force War StormWriting library : LAME3.93Encoding settings : -m j -V 0 -q 2 -lowpass 21.1 --vbr-old -b 96Language : JapaneseDefault : YesForced : Yes
Text #1ID : 3Format : ASSCodec ID : S_TEXT/ASSCodec ID/Info : Advanced Sub Station AlphaCompression mode : LosslessTitle : styledLanguage : EnglishDefault : YesForced : No
Text #2ID : 4Format : UTF-8Codec ID : S_TEXT/UTF8Codec ID/Info : UTF-8 Plain TextTitle : unstyledLanguage : EnglishDefault : NoForced : No
Menu00:00:00.000 : :Start00:01:55.000 : :Main00:24:38.000 : :Ending00:26:50.000 : :Preview

Список эпизодов

1. Ураган Войны
2. Галопом по Галактике
3. Фабрика солдат
4. Дорога домой

Скриншоты

Вы не можете начинать темы
Вы не можете отвечать на сообщения
Вы не можете редактировать свои сообщения
Вы не можете удалять свои сообщения
Вы не можете голосовать в опросах
Вы не можете прикреплять файлы к сообщениям
Вы можете скачивать файлы
!ВНИМАНИЕ!

Сайт не предоставляет электронные версии произведений, а занимается лишь коллекционированием и каталогизацией ссылок, присылаемых и публикуемых на форуме нашими читателями. Если вы являетесь правообладателем какого-либо представленного материала и не желаете, чтобы ссылка на него находилась в нашем каталоге, свяжитесь с нами, и мы незамедлительно удалим ее. Файлы для обмена на трекере предоставлены пользователями сайта, и администрация не несет ответственности за их содержание. Просьба не заливать файлы, защищенные авторскими правами, а также файлы нелегального содержания!

Искали программы, игры, дополнения, музыка mp3, аниме, аудио книги, журналы? Добро пожаловать на свободный торрент трекер Torrents, у нас можно скачать бесплатно, без смс и регистрации и прочих ограничений лучшие, отборные сборки программ, игр. Скачать торрентом не составит труда даже не опытному пользователю. Раздачи ежедневно обновляются, только лучшие и качественные раздачи, подробные описания и скриншоты. Огромная коллекция программ для работы со звуком, графикой, дизайном, а так же множество плагинов и инструментов к ним с подробной инструкцией и рекомендациями. Прошивки для навигаторов, карты. Разнообразные игры, для Windows, Linux. В коллекцие есть и старые игры любых жанров, Rpg, Action, Shooter, strategy Множество дополнений, модификаций, сценариев для популярных игр в жанре экш, рпг, гонки, стратегии, логические игры. Множество аддонов и сценариев для Microsoft Flight Simulator Большая коллекция книг, учебников. Если нет возможности купить печатное издание - смело скачивайте цифровую версию книги или, быть может, журнала. Не любите читать - можно загрузить бесплатно аудикнигу. Для веб дизайнеров и программистов так же найдется множество специализированного софта, таких как: редакторы с подсветкой, среды программирования, компоненты, системы управления базами данных, разнообразные скрипты и шаблоны. Не так давно у нас появился материал для автолюбителей и владельцев мото - оригинальные и неоригинальные каталоги запчастей, книги и журналы по ремонту и обслуживанию, видеоуроки, статьи по чип тюнингу, прошивкам. Процедура получения контента элементарная, достаточно просто скачать торрент файл и добавить его в загрузку в вашем торрент клиенте. Если у вас нет специального торрент клиента, вы можете его скачать у нас.