Демонбэйн / Demonbane (Масуо Сёйти) [TV][12 из 12][без хардсаба][RUS(int),JAP+SUB][2006, комедия, фэнтези, меха, романтика, DVDRip] 

Цитировать
Демонбэйн / Demonbane- Год выпуска: 2006
Страна: Япония
Жанр: комедия, фэнтези, меха, романтика-Продолжительность: 12 эп. по 23 мин.
Русская озвучка: одноголосая - Cuba77
Русские субтитры: есть
  • серии 1-8, 12 - Rif Robin;
  • серии 9-11 - Zima.
-Режиссер: Масуо Сёйти
Автор сценария: Курода Ёсукэ-Детектив Куро Дайджелин давно на мели. Вдруг – неслыханная удача! – ему предлагают высокооплачиваемую работу, причем исходит заказ от могущественной корпорации «Хадо», которая заправляет всем и вся в Аркам-Сити.
Правда, заказ обещает быть опасным – юный президент, Рури Хадо, потребовала от сыщика найти настоящий гримуар – книгу заклинаний, а за такими редкостями охотятся воинственные секты и зловещая Черная Ложа… Однако, чего ни сделаешь за наличные!
-Качество: DVDRip
Формат: AVI
Видео кодек: XviD
Аудио кодек: MP3
Видео: 704x396 пикселей, 29.970 кадр/сек, 1500 кбит/сек;
Аудио:
  • русский 44.1 кГц, 2 канала, 96 кбит/сек;
  • японский 44.1 кГц, 2 канала, 160 кбит/сек.

-

отчет Media Info

General
Complete name : ***\Demonbane - 01.avi
Format : AVI
Format/Info : Audio Video Interleave
File size : 317 MiB
Duration : 24mn 50s
Overall bit rate : 1 786 Kbps
Writing application : VirtualDubMod 1.5.10.2 (build 2540/release)
Writing library : VirtualDubMod build 2540/release
Video
ID : 0
Format : MPEG-4 Visual
Format profile : Advanced Simple@L5
Format settings, BVOP : 2
Format settings, QPel : No
Format settings, GMC : No warppoints
Format settings, Matrix : Default (H.263)
Muxing mode : Packed bitstream
Codec ID : XVID
Codec ID/Hint : XviD
Duration : 24mn 50s
Bit rate : 1 512 Kbps
Width : 704 pixels
Height : 396 pixels
Display aspect ratio : 16:9
Frame rate : 29.970 fps
Color space : YUV
Chroma subsampling : 4:2:0
Bit depth : 8 bits
Scan type : Progressive
Compression mode : Lossy
Bits/(Pixel*Frame) : 0.181
Stream size : 269 MiB (85%)
Writing library : XviD 1.1.2 (UTC 2006-11-01)
Audio #1
ID : 1
Format : MPEG Audio
Format version : Version 1
Format profile : Layer 3
Mode : Joint stereo
Mode extension : Intensity Stereo + MS Stereo
Codec ID : 55
Codec ID/Hint : MP3
Duration : 24mn 49s
Bit rate mode : Constant
Bit rate : 96.0 Kbps
Channel(s) : 2 channels
Sampling rate : 44.1 KHz
Compression mode : Lossy
Stream size : 17.0 MiB (5%)
Alignment : Split accross interleaves
Interleave, duration : 33 ms (1.00 video frame)
Interleave, preload duratio : 500 ms
Audio #2
ID : 2
Format : MPEG Audio
Format version : Version 1
Format profile : Layer 3
Mode : Joint stereo
Mode extension : MS Stereo
Codec ID : 55
Codec ID/Hint : MP3
Duration : 24mn 50s
Bit rate mode : Constant
Bit rate : 160 Kbps
Channel(s) : 2 channels
Sampling rate : 44.1 KHz
Compression mode : Lossy
Stream size : 28.4 MiB (9%)
Alignment : Split accross interleaves
Interleave, duration : 33 ms (1.00 video frame)
Interleave, preload duratio : 500 ms
-

инфа по субтитрам

Субтитры лежат отдельно в папке "Sub". Для того, чтобы смотреть с субтитрами и оригинальной звуковой дорожкой, вам нужно:
  • скопировать субтитры к нужной серии из папки сабов в папку с видео файлами;
  • в настройках вашего плеера подключить субтитры и переключить звуковую дорожку с русской на японскую.
Большая часть проигрывателей сама распознает дорожку субтитров, лежащую в виде внешнего файла.-Также в папке "Sub" лежит папка "Readme", в которой содержатся пояснения к некоторым сериям (переведенным Rif Robin-ом).
-

эпизоды

01. I am Providence
02. Evil Shine
03. Reaninator!
04. The Invaders
05. The Shadow over Innsmouth
06. Qua Vadis
07. Big "C"
08. Shadow in the Dark
09. The Hunt
10. Metallic Warcry
11. The Return of the Sorcerer
12. Strange Eons
-

Скриншоты

-
Вы не можете начинать темы
Вы не можете отвечать на сообщения
Вы не можете редактировать свои сообщения
Вы не можете удалять свои сообщения
Вы не можете голосовать в опросах
Вы не можете прикреплять файлы к сообщениям
Вы можете скачивать файлы
!ВНИМАНИЕ!

Сайт не предоставляет электронные версии произведений, а занимается лишь коллекционированием и каталогизацией ссылок, присылаемых и публикуемых на форуме нашими читателями. Если вы являетесь правообладателем какого-либо представленного материала и не желаете, чтобы ссылка на него находилась в нашем каталоге, свяжитесь с нами, и мы незамедлительно удалим ее. Файлы для обмена на трекере предоставлены пользователями сайта, и администрация не несет ответственности за их содержание. Просьба не заливать файлы, защищенные авторскими правами, а также файлы нелегального содержания!

Искали программы, игры, дополнения, музыка mp3, аниме, аудио книги, журналы? Добро пожаловать на свободный торрент трекер Torrents, у нас можно скачать бесплатно, без смс и регистрации и прочих ограничений лучшие, отборные сборки программ, игр. Скачать торрентом не составит труда даже не опытному пользователю. Раздачи ежедневно обновляются, только лучшие и качественные раздачи, подробные описания и скриншоты. Огромная коллекция программ для работы со звуком, графикой, дизайном, а так же множество плагинов и инструментов к ним с подробной инструкцией и рекомендациями. Прошивки для навигаторов, карты. Разнообразные игры, для Windows, Linux. В коллекцие есть и старые игры любых жанров, Rpg, Action, Shooter, strategy Множество дополнений, модификаций, сценариев для популярных игр в жанре экш, рпг, гонки, стратегии, логические игры. Множество аддонов и сценариев для Microsoft Flight Simulator Большая коллекция книг, учебников. Если нет возможности купить печатное издание - смело скачивайте цифровую версию книги или, быть может, журнала. Не любите читать - можно загрузить бесплатно аудикнигу. Для веб дизайнеров и программистов так же найдется множество специализированного софта, таких как: редакторы с подсветкой, среды программирования, компоненты, системы управления базами данных, разнообразные скрипты и шаблоны. Не так давно у нас появился материал для автолюбителей и владельцев мото - оригинальные и неоригинальные каталоги запчастей, книги и журналы по ремонту и обслуживанию, видеоуроки, статьи по чип тюнингу, прошивкам. Процедура получения контента элементарная, достаточно просто скачать торрент файл и добавить его в загрузку в вашем торрент клиенте. Если у вас нет специального торрент клиента, вы можете его скачать у нас.