Война тануки в периоды Хэйсэй и Помпоко / Heisei Tanuki Gassen Ponpoko / Pom Poko [Movie] [хардсаб] [JAP+SUB] [1994, комедия, драма, фэнтези, DVDRip] 

Цитировать
Помпоко. Война тануки / Pom Poko
Год выпуска: 1994
Страна: Япония
Жанр: Комедия, драма, фэнтези
Продолжительность: 01:59
Перевод: Субтитры
Русские субтитры: есть-Режиссер: Исао Такахата / Isao Takahata
Описание: Современная Япония, западные окраины Токио. Люди застраивают леса и холмы, которые раньше принадлежали тануки - енотовидным собакам. Тануки начинают героическую, но обреченную войну за выживание. Для этого они возрождают древнее искусство превращения. С его помощью они могут превращаться даже в людей...-Доп. информация: IMDB 7.5/10 (3.199 votes)
Качество: DVDRip (русский хардсаб)
Формат: AVI
Видео кодек: XviD
Аудио кодек: MP3
Видео: 720x400; 24 fps; 738 kbps; 0,11 b/px
Аудио: 48000 Hz; stereo; 80 kbps; MP3

Media Info

General
Complete name : D:\Down\Pompoko.avi
Format : AVI
Format/Info : Audio Video Interleave
File size : 696 MiB
Duration : 1h 59mn
Overall bit rate : 818 Kbps
Writing application : Lavf51.12.1
Video
ID : 0
Format : MPEG-4 Visual
Format profile : Simple@L1
Format settings, BVOP : No
Format settings, QPel : No
Format settings, GMC : No warppoints
Format settings, Matrix : Default (H.263)
Codec ID : DX50
Codec ID/Hint : DivX 5
Duration : 1h 59mn
Bit rate : 725 Kbps
Width : 720 pixels
Height : 400 pixels
Display aspect ratio : 16:9
Frame rate : 24.000 fps
Color space : YUV
Chroma subsampling : 4:2:0
Bit depth : 8 bits
Scan type : Progressive
Compression mode : Lossy
Bits/(Pixel*Frame) : 0.105
Stream size : 617 MiB (89%)
Writing library : Lavc51.40.4
Audio
ID : 1
Format : MPEG Audio
Format version : Version 1
Format profile : Layer 3
Mode : Joint stereo
Mode extension : MS Stereo
Codec ID : 55
Codec ID/Hint : MP3
Duration : 1h 59mn
Bit rate mode : Constant
Bit rate : 80.0 Kbps
Channel(s) : 2 channels
Sampling rate : 48.0 KHz
Compression mode : Lossy
Stream size : 68.1 MiB (10%)
Alignment : Aligned on interleaves
Interleave, duration : 24 ms (0.58 video frame)
Interleave, preload duration : 24 ms
Writing library : LAME3.97
-Отличия от существующих раздач:
http://rutracker.org/forum/viewtopic.php?t=575602 - оригинальная дорожка (в комплекте с субтитрами).
http://rutracker.org/forum/viewtopic.php?t=326978 - оригинальная дорожка (в комплекте с субтитрами).

Скриншоты




Вы не можете начинать темы
Вы не можете отвечать на сообщения
Вы не можете редактировать свои сообщения
Вы не можете удалять свои сообщения
Вы не можете голосовать в опросах
Вы не можете прикреплять файлы к сообщениям
Вы можете скачивать файлы
!ВНИМАНИЕ!

Сайт не предоставляет электронные версии произведений, а занимается лишь коллекционированием и каталогизацией ссылок, присылаемых и публикуемых на форуме нашими читателями. Если вы являетесь правообладателем какого-либо представленного материала и не желаете, чтобы ссылка на него находилась в нашем каталоге, свяжитесь с нами, и мы незамедлительно удалим ее. Файлы для обмена на трекере предоставлены пользователями сайта, и администрация не несет ответственности за их содержание. Просьба не заливать файлы, защищенные авторскими правами, а также файлы нелегального содержания!

Искали программы, игры, дополнения, музыка mp3, аниме, аудио книги, журналы? Добро пожаловать на свободный торрент трекер Torrents, у нас можно скачать бесплатно, без смс и регистрации и прочих ограничений лучшие, отборные сборки программ, игр. Скачать торрентом не составит труда даже не опытному пользователю. Раздачи ежедневно обновляются, только лучшие и качественные раздачи, подробные описания и скриншоты. Огромная коллекция программ для работы со звуком, графикой, дизайном, а так же множество плагинов и инструментов к ним с подробной инструкцией и рекомендациями. Прошивки для навигаторов, карты. Разнообразные игры, для Windows, Linux. В коллекцие есть и старые игры любых жанров, Rpg, Action, Shooter, strategy Множество дополнений, модификаций, сценариев для популярных игр в жанре экш, рпг, гонки, стратегии, логические игры. Множество аддонов и сценариев для Microsoft Flight Simulator Большая коллекция книг, учебников. Если нет возможности купить печатное издание - смело скачивайте цифровую версию книги или, быть может, журнала. Не любите читать - можно загрузить бесплатно аудикнигу. Для веб дизайнеров и программистов так же найдется множество специализированного софта, таких как: редакторы с подсветкой, среды программирования, компоненты, системы управления базами данных, разнообразные скрипты и шаблоны. Не так давно у нас появился материал для автолюбителей и владельцев мото - оригинальные и неоригинальные каталоги запчастей, книги и журналы по ремонту и обслуживанию, видеоуроки, статьи по чип тюнингу, прошивкам. Процедура получения контента элементарная, достаточно просто скачать торрент файл и добавить его в загрузку в вашем торрент клиенте. Если у вас нет специального торрент клиента, вы можете его скачать у нас.