Красавица-Воин Сейлор Мун Сейлор Звёзды / Pretty Soldier Sailor Moon Sailor Stars [TV] [34 из 34] [Без хардсаба] [RUS(int), JAP, SUB] [1996, махо-сёдзё, приключения, романтика, DVDRemux] 

Цитировать
Красавица-Воин Сейлор Мун Сейлор Звёзды / Pretty Soldier Sailor Moon Sailor Stars
Страна: Япония
Год выпуска: 1996 г.
Жанр: махо-сёдзё, приключения, романтика
Тип: TV
Продолжительность: 34 эп. по ~24 мин.
Режиссер: Игараси Такуя
Студия: Toei Animation
Описание: В начале сезона выясняется, что предыдущие враги не погибли полностью и необходимо закончить начатое. Вскоре на планету прибывает трое воинов — Сейлор воинов из другой системы. Они ищут свою принцессу, бежавшую с их родного мира, захваченного Галаксией, разыскивающей звёздные семена и новой целью выбравшей Землю и её защитников.
World Art, AniDB, MAL
Доп. информация: Итальянское реставрированное изданиеDVDripКачество: DVDRemux
Тип релиза: Без хардсаба
Формат видео: MKV
Совместимость с бытовыми HD плеерами: Да
Видео: MPEG2, 720×576, ~ 8 289 Kbps, 25.000 fps, 8 bit
Аудио: AC3, 192 Kbps, 48.0 KHz, 2 channels Язык Русский
Аудио 2: AC3, 192 Kbps, 48.0 KHz, 2 channels Язык Японский
Субтитры: ASS, внешние Язык субтитров русский ; Перевод: AlexMalkavian, Cheb, Ze_us
Звук дорожек 2х2 и доп. вступлений предоставили: drbars, ALEKS KV
Синхронизация дорожек: ALEKS KV

Подробные тех. данные

GeneralUnique ID                                : 217112283177168250173588490578652721417 (0xA3564E03DE2C705261CDB8A68D167109)Complete name                            : G:\Sailor Moon Sailor Stars DVDRemux\Sailor Moon Sailor Stars - 01 (167) DVDRemux.mkvFormat                                   : MatroskaFormat version                           : Version 4 / Version 2File size                                : 1.45 GiBDuration                                 : 23 min 51 sOverall bit rate mode                    : VariableOverall bit rate                         : 8 679 kb/sEncoded date                             : UTC 2018-08-05 04:20:28Writing application                      : mkvmerge v25.0.0 ('Prog Noir') 64-bitWriting library                          : libebml v1.3.6 + libmatroska v1.4.9
VideoID : 1Format : MPEG VideoFormat version : Version 2Format profile : Main@MainFormat settings : CustomMatrix / BVOPFormat settings, BVOP : YesFormat settings, Matrix : CustomFormat settings, GOP : VariableCodec ID : V_MPEG2Codec ID/Info : MPEG 1 or 2 VideoDuration : 23 min 51 sBit rate mode : VariableBit rate : 8 289 kb/sMaximum bit rate : 9 800 kb/sWidth : 720 pixelsHeight : 576 pixelsDisplay aspect ratio : 4:3Frame rate mode : VariableFrame rate : 23.976 FPSOriginal frame rate : 24.000 FPSColor space : YUVChroma subsampling : 4:2:0Bit depth : 8 bitsScan type : ProgressiveScan order : 2:2:2:2:2:2:2:2:2:2:2:3 PulldownCompression mode : LossyBits/(Pixel*Frame) : 0.834Time code of first frame : 01:00:00:00Time code source : Group of pictures headerGOP, Open/Closed : OpenGOP, Open/Closed of first frame : ClosedStream size : 1.38 GiB (96%)Language : EnglishDefault : NoForced : No
Audio #1ID : 2Format : AC-3Format/Info : Audio Coding 3Codec ID : A_AC3Duration : 23 min 51 sBit rate mode : ConstantBit rate : 192 kb/sChannel(s) : 2 channelsChannel positions : Front: L RSampling rate : 48.0 kHzFrame rate : 31.250 FPS (1536 SPF)Bit depth : 16 bitsCompression mode : LossyStream size : 32.8 MiB (2%)Title : Запись со спутникаLanguage : RussianService kind : Complete MainDefault : YesForced : No
Audio #2ID : 3Format : AC-3Format/Info : Audio Coding 3Codec ID : A_AC3Duration : 23 min 51 sBit rate mode : ConstantBit rate : 192 kb/sChannel(s) : 2 channelsChannel positions : Front: L RSampling rate : 48.0 kHzFrame rate : 31.250 FPS (1536 SPF)Bit depth : 16 bitsCompression mode : LossyStream size : 32.8 MiB (2%)Title : 2/0Language : JapaneseService kind : Complete MainDefault : NoForced : No
Menu00:00:00.000 : en:Chapter 0100:01:36.680 : en:Chapter 0200:03:16.660 : en:Chapter 0300:11:49.300 : en:Chapter 0400:21:49.480 : en:Chapter 0500:23:21.560 : en:Chapter 06

Список эпизодов

01(167). Пришло время кошмаров! Королева Темноты
02(168). Пробуждение Сатурна. Собрание десяти Воинов
03(169). Ночной кошмар посещает Мамору
04(170). Ночь нашей судьбы
05(171). Бесконечная война
06(172). Конец кошмара
07(173). Судьба звёзд
08(174). Буря в школе
09(175). Честолюбие Минако
10(176). Личность Сейлор Воителя
11(177). Мечты, доверенные звёздам
12(178). Настоящее лицо Ятена
13(179). Враги или друзья?
14(180). Блеск звёзд
15(181). Сейя и Банни
16(182). Вторжение из космоса
17(183). Крик призрака
18(184). Двое в ночи
19(185). Песня Таики
20(186). За Чиби Чиби скрывается тайна?
21(187). Сила Звёздного Света
22(188). Ночной полёт Банни
23(189). Между домом и дружбой
24(190). Раскрытая истина. Прошлое Сейи
25(191). Когда танцуют бабочки
26(192). На пути к мечте
27(193). Принцесса
28(194). Священная битва
29(195). Галаксия нападает
30(196). Когда погибает галактика
31(197). Угроза Галаксии
32(198). Исчезающие звёзды
33(199). Луч Надежды или последняя битва
34(200). Любовь Банни. Галактику освящает лунный свет

Отличия

Лучшее качество видео:
_____Эта раздача_____________Yurasyk_________________sature_______________hame1eon_______

Скриншоты

Вы не можете начинать темы
Вы не можете отвечать на сообщения
Вы не можете редактировать свои сообщения
Вы не можете удалять свои сообщения
Вы не можете голосовать в опросах
Вы не можете прикреплять файлы к сообщениям
Вы можете скачивать файлы
!ВНИМАНИЕ!

Сайт не предоставляет электронные версии произведений, а занимается лишь коллекционированием и каталогизацией ссылок, присылаемых и публикуемых на форуме нашими читателями. Если вы являетесь правообладателем какого-либо представленного материала и не желаете, чтобы ссылка на него находилась в нашем каталоге, свяжитесь с нами, и мы незамедлительно удалим ее. Файлы для обмена на трекере предоставлены пользователями сайта, и администрация не несет ответственности за их содержание. Просьба не заливать файлы, защищенные авторскими правами, а также файлы нелегального содержания!

Искали программы, игры, дополнения, музыка mp3, аниме, аудио книги, журналы? Добро пожаловать на свободный торрент трекер Torrents, у нас можно скачать бесплатно, без смс и регистрации и прочих ограничений лучшие, отборные сборки программ, игр. Скачать торрентом не составит труда даже не опытному пользователю. Раздачи ежедневно обновляются, только лучшие и качественные раздачи, подробные описания и скриншоты. Огромная коллекция программ для работы со звуком, графикой, дизайном, а так же множество плагинов и инструментов к ним с подробной инструкцией и рекомендациями. Прошивки для навигаторов, карты. Разнообразные игры, для Windows, Linux. В коллекцие есть и старые игры любых жанров, Rpg, Action, Shooter, strategy Множество дополнений, модификаций, сценариев для популярных игр в жанре экш, рпг, гонки, стратегии, логические игры. Множество аддонов и сценариев для Microsoft Flight Simulator Большая коллекция книг, учебников. Если нет возможности купить печатное издание - смело скачивайте цифровую версию книги или, быть может, журнала. Не любите читать - можно загрузить бесплатно аудикнигу. Для веб дизайнеров и программистов так же найдется множество специализированного софта, таких как: редакторы с подсветкой, среды программирования, компоненты, системы управления базами данных, разнообразные скрипты и шаблоны. Не так давно у нас появился материал для автолюбителей и владельцев мото - оригинальные и неоригинальные каталоги запчастей, книги и журналы по ремонту и обслуживанию, видеоуроки, статьи по чип тюнингу, прошивкам. Процедура получения контента элементарная, достаточно просто скачать торрент файл и добавить его в загрузку в вашем торрент клиенте. Если у вас нет специального торрент клиента, вы можете его скачать у нас.