Жадность / Greed [OVA] [1 из 1] [Без хардсаба] [JAP+SUB] [1985, приключения, фэнтези, LDRip] 

Цитировать
Жадность / Greed / グリード
Страна: Япония
Год выпуска: 1985
Жанр: приключения, фэнтези
Тип: OVA
Продолжительность: 55 мин.
Режиссер: Когава Томонори
Студия: FilmLink International
Описание: Древнее зло держало в страхе все и вся во вселенной, и никому не удавалось его одолеть. Пока на это не решились пятеро разных, но объединенных одной целью людей.
© hokuto_san
Качество: LDRip
Тип релиза: Без хардсаба
Формат видео: MKV
Релиз/Автор рипа: Orphan
Видео: AVC, 640x480, 2 204 kb/s, 23.976 fps, 10 bit
Аудио: jpn(int), AC-3, 384 kb/s, 48.0 kHz, 2 ch
Субтитры 1: eng(int), ASS
Субтитры 2: rus(ext), ASS, перевод: hokuto_san

Комментарии к релизу

Из-за повреждения последней минуты LD, полная версия финальной песни добавлена из VHS.

Подробные тех. данные

GeneralUnique ID                                : 226976164547574161592756001608086834090 (0xAAC204EA0EB732D997020F9CD383CBAA)Complete name                            : F:\1\MR\[Orphan] Greed (LD)\[Orphan] Greed (LD) [1C421BCE].mkvFormat                                   : MatroskaFormat version                           : Version 4 / Version 2File size                                : 1.00 GiBDuration                                 : 55 min 10 sOverall bit rate                         : 2 604 kb/sMovie name                               : [Orphan] GreedEncoded date                             : UTC 2018-08-12 18:59:31Writing application                      : mkvmerge v7.8.0 ('River Man') 32bit built on Mar 27 2015 16:18:02Writing library                          : libebml v1.3.1 + libmatroska v1.4.2Attachments                              : automati.ttf / candarab.ttf / CANDARAZ.TTF / FOT-SeuratPro-EB.otf
VideoID : 1Format : AVCFormat/Info : Advanced Video CodecFormat profile : High 10@L4.1Format settings : CABAC / 16 Ref FramesFormat settings, CABAC : YesFormat settings, RefFrames : 16 framesCodec ID : V_MPEG4/ISO/AVCDuration : 55 min 10 sBit rate : 2 204 kb/sWidth : 640 pixelsHeight : 480 pixelsDisplay aspect ratio : 4:3Frame rate mode : ConstantFrame rate : 23.976 (24000/1001) FPSColor space : YUVChroma subsampling : 4:2:0Bit depth : 10 bitsScan type : ProgressiveBits/(Pixel*Frame) : 0.299Stream size : 870 MiB (85%)Title : VideoWriting library : x264 core 148 r2638 7599210Encoding settings : cabac=1 / ref=16 / deblock=1:0:0 / analyse=0x3:0x133 / me=umh / subme=10 / psy=1 / psy_rd=0.80:0.00 / mixed_ref=1 / me_range=24 / chroma_me=1 / trellis=2 / 8x8dct=1 / cqm=0 / deadzone=21,11 / fast_pskip=1 / chroma_qp_offset=-2 / threads=12 / lookahead_threads=2 / sliced_threads=0 / nr=0 / decimate=1 / interlaced=0 / bluray_compat=0 / constrained_intra=0 / bframes=8 / b_pyramid=2 / b_adapt=2 / b_bias=0 / direct=3 / weightb=1 / open_gop=0 / weightp=2 / keyint=240 / keyint_min=23 / scenecut=40 / intra_refresh=0 / rc_lookahead=60 / rc=crf / mbtree=1 / crf=16.0 / qcomp=0.60 / qpmin=0 / qpmax=81 / qpstep=4 / vbv_maxrate=62500 / vbv_bufsize=78125 / crf_max=0.0 / nal_hrd=none / filler=0 / ip_ratio=1.40 / aq=1:1.00Default : YesForced : No
AudioID : 2Format : AC-3Format/Info : Audio Coding 3Codec ID : A_AC3Duration : 55 min 10 sBit rate mode : ConstantBit rate : 384 kb/sChannel(s) : 2 channelsChannel positions : Front: L RSampling rate : 48.0 kHzFrame rate : 31.250 FPS (1536 SPF)Bit depth : 16 bitsCompression mode : LossyStream size : 152 MiB (15%)Title : Japanese audioLanguage : JapaneseService kind : Complete MainDefault : YesForced : No
TextID : 3Format : ASSCodec ID : S_TEXT/ASSCodec ID/Info : Advanced Sub Station AlphaDuration : 54 min 19 sBit rate : 93 b/sCount of elements : 776Compression mode : LosslessStream size : 37.0 KiB (0%)Title : English subtitlesLanguage : EnglishDefault : YesForced : No
Menu00:00:00.000 : en:Lid00:04:34.370 : en:Kii00:07:46.190 : en:Baguda00:17:42.880 : en:Rongun00:23:22.960 : en:The Innocents00:30:24.760 : en:Mimau00:39:39.720 : en:Flight00:43:58.030 : en:Vailly00:53:02.200 : en:End Credits

Скриншоты

Вы не можете начинать темы
Вы не можете отвечать на сообщения
Вы не можете редактировать свои сообщения
Вы не можете удалять свои сообщения
Вы не можете голосовать в опросах
Вы не можете прикреплять файлы к сообщениям
Вы можете скачивать файлы
!ВНИМАНИЕ!

Сайт не предоставляет электронные версии произведений, а занимается лишь коллекционированием и каталогизацией ссылок, присылаемых и публикуемых на форуме нашими читателями. Если вы являетесь правообладателем какого-либо представленного материала и не желаете, чтобы ссылка на него находилась в нашем каталоге, свяжитесь с нами, и мы незамедлительно удалим ее. Файлы для обмена на трекере предоставлены пользователями сайта, и администрация не несет ответственности за их содержание. Просьба не заливать файлы, защищенные авторскими правами, а также файлы нелегального содержания!

Искали программы, игры, дополнения, музыка mp3, аниме, аудио книги, журналы? Добро пожаловать на свободный торрент трекер Torrents, у нас можно скачать бесплатно, без смс и регистрации и прочих ограничений лучшие, отборные сборки программ, игр. Скачать торрентом не составит труда даже не опытному пользователю. Раздачи ежедневно обновляются, только лучшие и качественные раздачи, подробные описания и скриншоты. Огромная коллекция программ для работы со звуком, графикой, дизайном, а так же множество плагинов и инструментов к ним с подробной инструкцией и рекомендациями. Прошивки для навигаторов, карты. Разнообразные игры, для Windows, Linux. В коллекцие есть и старые игры любых жанров, Rpg, Action, Shooter, strategy Множество дополнений, модификаций, сценариев для популярных игр в жанре экш, рпг, гонки, стратегии, логические игры. Множество аддонов и сценариев для Microsoft Flight Simulator Большая коллекция книг, учебников. Если нет возможности купить печатное издание - смело скачивайте цифровую версию книги или, быть может, журнала. Не любите читать - можно загрузить бесплатно аудикнигу. Для веб дизайнеров и программистов так же найдется множество специализированного софта, таких как: редакторы с подсветкой, среды программирования, компоненты, системы управления базами данных, разнообразные скрипты и шаблоны. Не так давно у нас появился материал для автолюбителей и владельцев мото - оригинальные и неоригинальные каталоги запчастей, книги и журналы по ремонту и обслуживанию, видеоуроки, статьи по чип тюнингу, прошивкам. Процедура получения контента элементарная, достаточно просто скачать торрент файл и добавить его в загрузку в вашем торрент клиенте. Если у вас нет специального торрент клиента, вы можете его скачать у нас.