Красавица-воин Сейлор Мун (ТВ-5) / Bishoujo Senshi Sailor Moon: Sailor Stars / Pretty Soldier Sailor Moon Sailor Stars [TV] [34 из 34] [Без хардсаба] [RUS(ext), ITA, JAP+SUB] [1996, махо-сёдзё, романтика, приключения, комедия, DVDRip] 

Цитировать
- Год выпуска: 1996
Страна: Япония
Жанр: махо-сёдзё, романтика, приключения, комедия
Продолжительность: 34 эп. по ~24 мин.
Режиссер: Игараси Такуя- -Описание: В начале сезона выясняется, что предыдущие враги не погибли полностью и необходимо закончить начатое. Вскоре на планету прибывает трое воинов — Сейлор воинов из другой системы. Они ищут свою принцессу, бежавшую с их родного мира, захваченного Галаксией, разыскивающей звёздные семена и новой целью выбравшей Землю и её защитников.
World-Art-Доп. информация: Данная раздача представляет собой рип DVDRemux'ов итальянского отреставрированного (Remastered 2) издания. Компрессии подвергался только видео поток, аудио дорожки сохранены без потери качества.
За весь предоставленый материал огромное спасибо EdzyowaСсылка на исходник-Качество: DVDRip [by VampireHanter]
Тип релиза: Без хардсаба, без линковки
Формат видео: MKV -Видео: MPEG4 Video (H264), 720x576, ~1910-2110 Kbps, 25.000fps, 10bit
Аудио 1: Dolby AC3, 48kHz, ~192 Kbps, 2ch, Японский
Аудио 2: Dolby AC3, 48KHz, ~192 Kbps, 2ch, Русский (с канала [2x2], внешним файлом)
Аудио 3: Dolby AC3, 48kHz, ~192 Kbps, 2ch, Итальянский (внешним файлом)
Субтитры 1: ASS [AlexMalkavian, Cheb, Ze_us, подправлены Liandri], Русские (внешние)
Субтитры 2: IDX+SUB, Итальянские (внешние)
Субтитры 3: IDX+SUB, Итальянские (внешние. только надписи)

Дополнительная информация о русских дорожках

Звук дорожек 2х2 и доп. вступлений предоставили: drbars, ALEKS KV
Синхронизация дорожек: ALEKS KV
-

MediaInfo

GeneralUnique ID                                : 174791862477593187436521818005414841151 (0x837FB02DBFDC1B3A9E5E1FB080578B3F)Complete name                            : F:\_Sailor Moon\Season 05\Sailor Moon Sailor Stars - 01 (167).mkvFormat                                   : MatroskaFormat version                           : Version 4 / Version 2File size                                : 359 MiBDuration                                 : 23mn 51sOverall bit rate                         : 2 103 KbpsEncoded date                             : UTC 2014-08-12 16:54:35Writing application                      : mkvmerge v7.0.0 ('Where We Going') 32bit built on Jun  9 2014 15:08:34Writing library                          : libebml v1.3.0 + libmatroska v1.4.1DURATION                                 : 00:23:51.840000000NUMBER_OF_FRAMES                         : 44745NUMBER_OF_BYTES                          : 34364160_STATISTICS_WRITING_APP                  : mkvmerge v7.0.0 ('Where We Going') 32bit built on Jun  9 2014 15:08:34_STATISTICS_WRITING_DATE_UTC             : 2014-08-12 16:54:35_STATISTICS_TAGS                         : BPS DURATION NUMBER_OF_FRAMES NUMBER_OF_BYTES
VideoID : 1Format : AVCFormat/Info : Advanced Video CodecFormat profile : High 10@L3.1Format settings, CABAC : YesFormat settings, ReFrames : 5 framesCodec ID : V_MPEG4/ISO/AVCDuration : 23mn 51sBit rate : 1 910 KbpsWidth : 720 pixelsHeight : 576 pixelsDisplay aspect ratio : 5:4Frame rate mode : ConstantFrame rate : 25.000 fpsStandard : PALColor space : YUVChroma subsampling : 4:2:0Bit depth : 10 bitsScan type : ProgressiveBits/(Pixel*Frame) : 0.184Stream size : 319 MiB (89%)Writing library : x264 core 142 r2431 ac76440Encoding settings : cabac=1 / ref=5 / deblock=1:1:1 / analyse=0x3:0x133 / me=umh / subme=10 / psy=1 / psy_rd=1.00:0.00 / mixed_ref=1 / me_range=24 / chroma_me=1 / trellis=2 / 8x8dct=1 / cqm=0 / deadzone=21,11 / fast_pskip=1 / chroma_qp_offset=-2 / threads=6 / lookahead_threads=1 / sliced_threads=0 / nr=0 / decimate=1 / interlaced=0 / bluray_compat=0 / constrained_intra=0 / bframes=10 / b_pyramid=2 / b_adapt=2 / b_bias=0 / direct=3 / weightb=1 / open_gop=0 / weightp=2 / keyint=250 / keyint_min=25 / scenecut=40 / intra_refresh=0 / rc_lookahead=60 / rc=2pass / mbtree=1 / bitrate=1910 / ratetol=1.0 / qcomp=0.70 / qpmin=0 / qpmax=81 / qpstep=4 / cplxblur=20.0 / qblur=0.5 / vbv_maxrate=17500 / vbv_bufsize=17500 / nal_hrd=none / filler=0 / ip_ratio=1.40 / aq=1:1.00Default : YesForced : No
AudioID : 2Format : AC-3Format/Info : Audio Coding 3Mode extension : CM (complete main)Format settings, Endianness : BigCodec ID : A_AC3Duration : 23mn 51sBit rate mode : ConstantBit rate : 192 KbpsChannel(s) : 2 channelsChannel positions : Front: L RSampling rate : 48.0 KHzBit depth : 16 bitsCompression mode : LossyStream size : 32.8 MiB (9%)Default : YesForced : No

Скриншоты

Список эпизодов

01 (167). Пришло время кошмаров! Королева Темноты
02 (168). Пробуждение Сатурна. Собрание десяти Воинов
03 (169). Ночной кошмар посещает Мамору
04 (170). Ночь нашей судьбы
05 (171). Бесконечная война
06 (172). Конец кошмара
07 (173). Судьба звёзд
08 (174). Буря в школе
09 (175). Честолюбие Минако
10 (176). Личность Сейлор Воителя
11 (177). Мечты, доверенные звёздам
12 (178). Настоящее лицо Ятена
13 (179). Враги или друзья?
14 (180). Блеск звёзд
15 (181). Сейя и Банни
16 (182). Вторжение из космоса
17 (183). Крик призрака
18 (184). Двое в ночи
19 (185). Песня Таики
20 (186). За Чиби Чиби скрывается тайна?
21 (187). Сила Звёздного Света
22 (188). Ночной полёт Банни
23 (189). Между домом и дружбой
24 (190). Раскрытая истина. Прошлое Сейи
25 (191). Когда танцуют бабочки
26 (192). На пути к мечте
27 (193). Принцесса
28 (194). Священная битва
29 (195). Галаксия нападает
30 (196). Когда погибает галактика
31 (197). Угроза Галаксии
32 (198). Исчезающие звёзды
33 (199). Луч Надежды или последняя битва
34 (200). Любовь Банни. Галактику освящает лунный свет
-

Отличия

Улучшение качества видео

Исходник

Данная раздача

Yurasyk

sature

chame1eon

http://rutracker.org/forum/viewtopic.php?t=4637393 - значительно меньший вес при незначительной потере качества
- Sailor Moon Special 1 | Sailor Moon Special 2
Вы не можете начинать темы
Вы не можете отвечать на сообщения
Вы не можете редактировать свои сообщения
Вы не можете удалять свои сообщения
Вы не можете голосовать в опросах
Вы не можете прикреплять файлы к сообщениям
Вы можете скачивать файлы
!ВНИМАНИЕ!

Сайт не предоставляет электронные версии произведений, а занимается лишь коллекционированием и каталогизацией ссылок, присылаемых и публикуемых на форуме нашими читателями. Если вы являетесь правообладателем какого-либо представленного материала и не желаете, чтобы ссылка на него находилась в нашем каталоге, свяжитесь с нами, и мы незамедлительно удалим ее. Файлы для обмена на трекере предоставлены пользователями сайта, и администрация не несет ответственности за их содержание. Просьба не заливать файлы, защищенные авторскими правами, а также файлы нелегального содержания!

Искали программы, игры, дополнения, музыка mp3, аниме, аудио книги, журналы? Добро пожаловать на свободный торрент трекер Torrents, у нас можно скачать бесплатно, без смс и регистрации и прочих ограничений лучшие, отборные сборки программ, игр. Скачать торрентом не составит труда даже не опытному пользователю. Раздачи ежедневно обновляются, только лучшие и качественные раздачи, подробные описания и скриншоты. Огромная коллекция программ для работы со звуком, графикой, дизайном, а так же множество плагинов и инструментов к ним с подробной инструкцией и рекомендациями. Прошивки для навигаторов, карты. Разнообразные игры, для Windows, Linux. В коллекцие есть и старые игры любых жанров, Rpg, Action, Shooter, strategy Множество дополнений, модификаций, сценариев для популярных игр в жанре экш, рпг, гонки, стратегии, логические игры. Множество аддонов и сценариев для Microsoft Flight Simulator Большая коллекция книг, учебников. Если нет возможности купить печатное издание - смело скачивайте цифровую версию книги или, быть может, журнала. Не любите читать - можно загрузить бесплатно аудикнигу. Для веб дизайнеров и программистов так же найдется множество специализированного софта, таких как: редакторы с подсветкой, среды программирования, компоненты, системы управления базами данных, разнообразные скрипты и шаблоны. Не так давно у нас появился материал для автолюбителей и владельцев мото - оригинальные и неоригинальные каталоги запчастей, книги и журналы по ремонту и обслуживанию, видеоуроки, статьи по чип тюнингу, прошивкам. Процедура получения контента элементарная, достаточно просто скачать торрент файл и добавить его в загрузку в вашем торрент клиенте. Если у вас нет специального торрент клиента, вы можете его скачать у нас.