Кошачий музыкант Оруоране / Neko Hiki no Oruorane / Oruorane the Cat Player [OVA] [1 из 1] [Без хардсаба] [JAP+SUB] [1992, повседневность, музыкальный, LDRip] 

Цитировать
Кошачий музыкант Оруоране / Neko Hiki no Oruorane / Oruorane the Cat Player / ねこひきのオルオラネ
Страна: Япония
Год выпуска: 1992
Жанр: повседневность, музыкальный
Тип: OVA
Продолжительность: 30 мин.
Режиссер: Нисикубо Мидзухо
Студия: J.C. Staff
Описание: Однажды под рождество в связи с роспуском оркестра, молодой человек лишился работы. Подумывая о том, чтобы спустить последние деньги на выпивку, в переулке он натыкается на загадочного кота, и его не менее загадочного владельца.
© wikipedia
Качество: LDRip
Тип релиза: Без хардсаба
Формат видео: MKV
Релиз/Автор рипа: Orphan
Видео: AVC, 640x480, 1 000 kb/s, 23.976 fps, 8 bit
Аудио: jpn(int), MP3, 192 kb/s, 48.0 kHz, 2 ch
Субтитры 1: eng(int), ASS
Субтитры 2: rus(ext), ASS, перевод: hokuto_san

Подробные тех. данные

GeneralUnique ID                                : 242813125874054752184960339707450541269 (0xB6AC1B646CC005F4A55D4791C22AC4D5)Complete name                            : F:\1\MR\[Orphan] Oruorane the Cat Player (LD)\[Orphan] Oruorane the Cat Player (LD) [7E82EC8F].mkvFormat                                   : MatroskaFormat version                           : Version 4 / Version 2File size                                : 258 MiBDuration                                 : 30 min 8 sOverall bit rate                         : 1 196 kb/sMovie name                               : [Orphan] Orurorane the Cat PlayerEncoded date                             : UTC 2018-07-11 19:43:18Writing application                      : mkvmerge v7.8.0 ('River Man') 32bit built on Mar 27 2015 16:18:02Writing library                          : libebml v1.3.1 + libmatroska v1.4.2Attachments                              : ClubTypeMercuriusMedium.ttf / corbelb.ttf / corbelz.ttf / FOT-ManyoKoinStd-B.ttf
VideoID : 1Format : AVCFormat/Info : Advanced Video CodecFormat profile : High@L3.2Format settings : CABAC / 16 Ref FramesFormat settings, CABAC : YesFormat settings, RefFrames : 16 framesCodec ID : V_MPEG4/ISO/AVCDuration : 30 min 8 sBit rate : 1 000 kb/sWidth : 640 pixelsHeight : 480 pixelsDisplay aspect ratio : 4:3Frame rate mode : ConstantFrame rate : 23.976 (24000/1001) FPSColor space : YUVChroma subsampling : 4:2:0Bit depth : 8 bitsScan type : ProgressiveBits/(Pixel*Frame) : 0.136Stream size : 215 MiB (84%)Title : VideoWriting library : x264 core 148 r2694bm 3b70645Encoding settings : cabac=1 / ref=16 / deblock=1:1:1 / analyse=0x3:0x133 / me=tesa / subme=11 / psy=1 / psy_rd=0.40:0.00 / mixed_ref=1 / me_range=24 / chroma_me=1 / trellis=2 / 8x8dct=1 / cqm=0 / deadzone=21,11 / fast_pskip=0 / chroma_qp_offset=-2 / threads=15 / lookahead_threads=3 / sliced_threads=0 / nr=0 / decimate=1 / interlaced=0 / bluray_compat=0 / constrained_intra=0 / bframes=16 / b_pyramid=2 / b_adapt=2 / b_bias=0 / direct=3 / weightb=1 / open_gop=0 / weightp=2 / keyint=250 / keyint_min=23 / scenecut=40 / intra_refresh=0 / rc_lookahead=60 / rc=2pass / mbtree=1 / bitrate=1000 / ratetol=1.0 / qcomp=0.60 / qpmin=0 / qpmax=69 / qpstep=4 / cplxblur=20.0 / qblur=0.5 / ip_ratio=1.40 / aq=1:0.60Default : YesForced : No
AudioID : 2Format : MPEG AudioFormat version : Version 1Format profile : Layer 3Format settings : Joint stereo / MS StereoCodec ID : A_MPEG/L3Codec ID/Hint : MP3Duration : 30 min 8 sBit rate mode : ConstantBit rate : 192 kb/sChannel(s) : 2 channelsSampling rate : 48.0 kHzFrame rate : 41.667 FPS (1152 SPF)Compression mode : LossyStream size : 41.4 MiB (16%)Title : Japanese audioLanguage : JapaneseDefault : YesForced : No
TextID : 3Format : ASSCodec ID : S_TEXT/ASSCodec ID/Info : Advanced Sub Station AlphaDuration : 29 min 5 sBit rate : 46 b/sCount of elements : 174Compression mode : LosslessStream size : 9.89 KiB (0%)Title : English subtitlesLanguage : EnglishDefault : YesForced : No
Menu00:00:00.000 : en:Prologue00:01:29.900 : en:Movement 100:06:19.900 : en:Movement 200:09:46.520 : en:Movement 300:12:19.300 : en:Movement 400:17:22.970 : en:Movement 500:22:58.180 : en:Movement 600:24:07.000 : en:Movement 700:24:51.010 : en:Final Movement00:27:52.190 : en:End Credits

Скриншоты

Вы не можете начинать темы
Вы не можете отвечать на сообщения
Вы не можете редактировать свои сообщения
Вы не можете удалять свои сообщения
Вы не можете голосовать в опросах
Вы не можете прикреплять файлы к сообщениям
Вы можете скачивать файлы
!ВНИМАНИЕ!

Сайт не предоставляет электронные версии произведений, а занимается лишь коллекционированием и каталогизацией ссылок, присылаемых и публикуемых на форуме нашими читателями. Если вы являетесь правообладателем какого-либо представленного материала и не желаете, чтобы ссылка на него находилась в нашем каталоге, свяжитесь с нами, и мы незамедлительно удалим ее. Файлы для обмена на трекере предоставлены пользователями сайта, и администрация не несет ответственности за их содержание. Просьба не заливать файлы, защищенные авторскими правами, а также файлы нелегального содержания!

Искали программы, игры, дополнения, музыка mp3, аниме, аудио книги, журналы? Добро пожаловать на свободный торрент трекер Torrents, у нас можно скачать бесплатно, без смс и регистрации и прочих ограничений лучшие, отборные сборки программ, игр. Скачать торрентом не составит труда даже не опытному пользователю. Раздачи ежедневно обновляются, только лучшие и качественные раздачи, подробные описания и скриншоты. Огромная коллекция программ для работы со звуком, графикой, дизайном, а так же множество плагинов и инструментов к ним с подробной инструкцией и рекомендациями. Прошивки для навигаторов, карты. Разнообразные игры, для Windows, Linux. В коллекцие есть и старые игры любых жанров, Rpg, Action, Shooter, strategy Множество дополнений, модификаций, сценариев для популярных игр в жанре экш, рпг, гонки, стратегии, логические игры. Множество аддонов и сценариев для Microsoft Flight Simulator Большая коллекция книг, учебников. Если нет возможности купить печатное издание - смело скачивайте цифровую версию книги или, быть может, журнала. Не любите читать - можно загрузить бесплатно аудикнигу. Для веб дизайнеров и программистов так же найдется множество специализированного софта, таких как: редакторы с подсветкой, среды программирования, компоненты, системы управления базами данных, разнообразные скрипты и шаблоны. Не так давно у нас появился материал для автолюбителей и владельцев мото - оригинальные и неоригинальные каталоги запчастей, книги и журналы по ремонту и обслуживанию, видеоуроки, статьи по чип тюнингу, прошивкам. Процедура получения контента элементарная, достаточно просто скачать торрент файл и добавить его в загрузку в вашем торрент клиенте. Если у вас нет специального торрент клиента, вы можете его скачать у нас.