Ручная горничная Мэй / Hand Maid May (Кимура Синъитиро) [TV+Special] [10+1 из 10+1] [без хардсаба] [RUS(ext),JAP+SUB] [2000, комедия, романтика, этти, DVDRip] 

Цитировать
Ручная горничная Мэй / Hand Maid May- Страна: Япония
Год выпуска: 2000
Жанр: комедия, романтика, этти
Тип: TV+Special
Продолжительность: 11 эп. по ~24 мин.-Режиссёр: Кимура Синъитиро
Автор оригинала: Муцуки Дзюдзо
Студия: TNK-Озвучка:
Одноголосная (жен.) Евгения Лурье-Субтитры: есть
русские (внешние) SRT полные/вспомогательные
TV Jetlman; SP Tropican-английские (встроенные) ASS полные/надписи
Orphan Fansubs & Zalis116-Описание: Сатоме Казуя — студент престижного университета Osza no Mizu Industries, которому никогда не везло с лицами женского пола. Его соседка — миловидная девушка постоянно пытается обратить на себя его внимание, но он этого не замечает. К тому же он полностью погружён в свою работу по созданию робота-спрута, использующего улучшенный искусственный интеллект. Но однажды его бурный конкурент дал ему странный диск с вирусом, предназначенным для того, чтобы убить его компьютер и уничтожить всю его работу. Но вместо этого сидюк отправляет его на сайт, где он случайно заказывает Мэй — девушку-робота, для работы по дому.-Информационные ссылки: AniDB | MyAnimeList | World Art-Качество: DVDRip (R2J)
Релиз/Автор рипа: Kuraze
Совместимость с бытовыми плеерами: Нет
Наличие линковки: Нет
Тип видео: без хардсаба
Формат: MKV
Видео: x264, 710x476, (4/3), ~2840кбит/с, 23,976fps, 10 bit
Аудио #1 (внешняя) русская - AC3, 2 ch, 192кбит/с, 48000Hz
Аудио #2 (в контейнере) японская - AC3, 2 ch, 448кбит/с, 48000Hz-

Информация о релизе

Для тех кто будет смотреть с озвучкой настоятельно советую скачать папку [вспомогательные субтитры] поскольку.
В сериях:
10 (23:08 - 24:20) на данный промежуток времени отсутствует озвучка
11 (24:12 - 24:15) на данный промежуток времени отсутствует озвучка ("косяк" исходника)-Теперь о плохом
В 6 серии брак озвучки, голос Е. Лурье отстаёт от происходящего в кадре, примерно с 9:00 - и до конца серии
В 10 серии (21:18 - 22:45) на данный промежуток времени отсутствует озвучка и русские субтитры.
-

Инструкция по просмотру

* Чтобы смотреть с озвучкой, необходимо из папки Rus sound переписать файлы в папку, где находятся видеофайлы. Далее, следует запустить плеер и переключиться на mka-дорожку. Подробное описание здесь
* Чтобы смотреть 10-битное видео (10bit), необходимо, исходя из ваших предпочтений используемого проигрывателя, воспользоваться
этой инструкцией.
* Чтобы смотреть с субтитрами, необходимо из папки Rus subs переписать файлы в папку, где находятся видеофайлы. В большинстве плееров, одноимённые субтитры подключатся автоматически.
-

Серия состоит из

#1 Ручная горничная Мэй - ТВ (10 эп. + спэшл), оригинальный сериал, 2000
#2 Ручная горничная Май - OVA (1 эп.), ремейк, 2003
-

Список эпизодов

01. Hello!
02. Am I Being Helpful?
03. What Should I Do...
04. Please Don't Look!
05. Thank You...For Everything...
06. More More!
07. There's No Time, Is There?
08. I Want A Lot More!
09. Even Though...I Believe
10. May 100%
11. Never Give Up
-

Отличия

http://rutracker.org/forum/viewtopic.php?t=3145816 - лучше качество видео

Сравнения

Тут

Там
-http://rutracker.org/forum/viewtopic.php?t=208103 - лучше качество видео

Сравнения

Тут

Там
-

Скриншоты

-

MediaInfo

Общее
Уникальный идентификатор : 243451763101797848730337907954299864414 (0xB7271AA37D7BB9AD8F8C290BC8FA855E)
Полное имя : C:\Торенты №1\Hand Maid May [DVDRip 476p]\[Kuraze] Hand Maid May Episode 06 (DVD 710x476 H264 Hi10p AC3 Chap).mkv
Формат : Matroska
Версия формата : Version 2
Размер файла : 559 Мбайт
Продолжительность : 23 м. 16 с.
Общий поток : 3357 Кбит/сек
Название фильма : Episode 1 - How Do You Do?
Дата кодирования : UTC 2018-09-16 09:45:59
Программа кодирования : mkvmerge v2.9.7 ('Tenderness') built on Jul 1 2009 18:43:35
Библиотека кодирования : libebml v0.7.7 + libmatroska v0.8.1
Attachments : Budhrg__.ttf / DomCasualD.ttf / Miu.ttf / Alberta_Regular.ttf / gishabd.ttf
Видео
Идентификатор : 1
Формат : AVC
Формат/Информация : Advanced Video Codec
Профиль формата : High 10@L5.2
Настройки формата : CABAC / 16 Ref Frames
Параметр CABAC формата : Да
Параметр RefFrames формата : 16 кадров
Идентификатор кодека : V_MPEG4/ISO/AVC
Продолжительность : 23 м. 16 с.
Битрейт : 2842 Кбит/сек
Ширина : 710 пикселей
Высота : 476 пикселей
Соотношение сторон : 4:3
Соотношение сторон в оригинале : 3:2
Режим частоты кадров : Постоянный
Частота кадров : 23,976 (24000/1001) кадра/сек
Цветовое пространство : YUV
Субдискретизация насыщенности : 4:2:0
Битовая глубина : 10 бит
Тип развёртки : Прогрессивная
Бит/(Пиксели*Кадры) : 0.351
Размер потока : 473 Мбайт (85%)
Заголовок : Hand Maid May Episode 06
Библиотека кодирования : x264 core 155 r2901 7d0ff22
Настройки программы : cabac=1 / ref=16 / deblock=1:0:0 / analyse=0x3:0x133 / me=tesa / subme=10 / psy=1 / psy_rd=1.00:0.00 / mixed_ref=1 / me_range=32 / chroma_me=1 / trellis=2 / 8x8dct=1 / cqm=0 / deadzone=21,11 / fast_pskip=1 / chroma_qp_offset=-2 / threads=6 / lookahead_threads=1 / sliced_threads=0 / nr=0 / decimate=1 / interlaced=0 / bluray_compat=0 / constrained_intra=0 / bframes=8 / b_pyramid=2 / b_adapt=2 / b_bias=0 / direct=3 / weightb=1 / open_gop=0 / weightp=2 / keyint=240 / keyint_min=23 / scenecut=40 / intra_refresh=0 / rc_lookahead=120 / rc=crf / mbtree=1 / crf=16.0 / qcomp=0.80 / qpmin=0 / qpmax=69 / qpstep=4 / vbv_maxrate=300000 / vbv_bufsize=300000 / crf_max=0.0 / nal_hrd=none / filler=0 / ip_ratio=1.30 / aq=1:1.00
Язык : Japanese
Default : Да
Forced : Нет
Аудио
Идентификатор : 2
Формат : AC-3
Формат/Информация : Audio Coding 3
Идентификатор кодека : A_AC3
Продолжительность : 23 м. 16 с.
Вид битрейта : Постоянный
Битрейт : 448 Кбит/сек
Каналы : 2 канала
Расположение каналов : Front: L R
Частота : 48,0 КГц
Частота кадров : 31,250 кадров/сек (1536 SPF)
Битовая глубина : 16 бит
Метод сжатия : С потерями
Размер потока : 74,6 Мбайт (13%)
Заголовок : Dolby Digital 2.0
Язык : Japanese
ServiceKind/String : Complete Main
Default : Да
Forced : Нет
Текст #1
Идентификатор : 3
Формат : ASS
Идентификатор кодека : S_TEXT/ASS
Идентификатор кодека/Информация : Advanced Sub Station Alpha
Метод сжатия : Без потерь
Заголовок : Signs/Songs [Orphan Fansubs & Zalis116]
Язык : English
Default : Да
Forced : Нет
Текст #2
Идентификатор : 4
Формат : ASS
Идентификатор кодека : S_TEXT/ASS
Идентификатор кодека/Информация : Advanced Sub Station Alpha
Метод сжатия : Без потерь
Заголовок : Dialogue [Orphan Fansubs]
Язык : English
Default : Нет
Forced : Нет
Меню
00:00:00.000 : :Opening
00:01:29.589 : :Part A
00:10:38.304 : :Part B
00:21:47.264 : :Ending
00:22:59.878 : :Preview
-
Вы не можете начинать темы
Вы не можете отвечать на сообщения
Вы не можете редактировать свои сообщения
Вы не можете удалять свои сообщения
Вы не можете голосовать в опросах
Вы не можете прикреплять файлы к сообщениям
Вы можете скачивать файлы
!ВНИМАНИЕ!

Сайт не предоставляет электронные версии произведений, а занимается лишь коллекционированием и каталогизацией ссылок, присылаемых и публикуемых на форуме нашими читателями. Если вы являетесь правообладателем какого-либо представленного материала и не желаете, чтобы ссылка на него находилась в нашем каталоге, свяжитесь с нами, и мы незамедлительно удалим ее. Файлы для обмена на трекере предоставлены пользователями сайта, и администрация не несет ответственности за их содержание. Просьба не заливать файлы, защищенные авторскими правами, а также файлы нелегального содержания!

Искали программы, игры, дополнения, музыка mp3, аниме, аудио книги, журналы? Добро пожаловать на свободный торрент трекер Torrents, у нас можно скачать бесплатно, без смс и регистрации и прочих ограничений лучшие, отборные сборки программ, игр. Скачать торрентом не составит труда даже не опытному пользователю. Раздачи ежедневно обновляются, только лучшие и качественные раздачи, подробные описания и скриншоты. Огромная коллекция программ для работы со звуком, графикой, дизайном, а так же множество плагинов и инструментов к ним с подробной инструкцией и рекомендациями. Прошивки для навигаторов, карты. Разнообразные игры, для Windows, Linux. В коллекцие есть и старые игры любых жанров, Rpg, Action, Shooter, strategy Множество дополнений, модификаций, сценариев для популярных игр в жанре экш, рпг, гонки, стратегии, логические игры. Множество аддонов и сценариев для Microsoft Flight Simulator Большая коллекция книг, учебников. Если нет возможности купить печатное издание - смело скачивайте цифровую версию книги или, быть может, журнала. Не любите читать - можно загрузить бесплатно аудикнигу. Для веб дизайнеров и программистов так же найдется множество специализированного софта, таких как: редакторы с подсветкой, среды программирования, компоненты, системы управления базами данных, разнообразные скрипты и шаблоны. Не так давно у нас появился материал для автолюбителей и владельцев мото - оригинальные и неоригинальные каталоги запчастей, книги и журналы по ремонту и обслуживанию, видеоуроки, статьи по чип тюнингу, прошивкам. Процедура получения контента элементарная, достаточно просто скачать торрент файл и добавить его в загрузку в вашем торрент клиенте. Если у вас нет специального торрент клиента, вы можете его скачать у нас.