Красавица-воин Сейлор Мун Эр - Фильм / Bishoujo Senshi Sailor Moon R / Sailor Moon R: The Movie - The Promise of the Rose [16x9] [Movie] [Без хардсаба] [RUS(ext), JAP+SUB] [1993, махо-сёдзё, романтика, приключения, комедия, DVDRip] 

Цитировать
- Год выпуска: 1993
Страна: Япония
Жанр: махо-сёдзё, романтика, приключения, комедия
Продолжительность: 61 мин
Режиссер: Икухара Кунихико- -Описание: Сейлор Мун, её четыре подруги по сражениям (Меркурий, Венера, Марс и Юпитер) и Такседо Маск спасают планету от очередного опасного создания вселенной — Ксенианского Цветка. Это только на первый взгляд красивый безобидный цветок. Ксениан поремещается по вселенной уничтожая планеты на своём пути, поглащая их энергию. И вот целый астероид этих цветов направляется к Земле и одним из носителей цветка стал Фьёре, друг детства Мамору.
Спасёт ли на этот раз Землю магия Серебрянного Кристалла? Хватит ли у Сейлор Мун мужества защитить Землю, дружбу и любовь?
World-Art-Доп. информация: Данная раздача представляет собой рип DVDRemux'а итальянского отреставрированного (Remastered 2) издания. При создании рипа обрезал чёрные полосы по бокам кадра, присутствующие на DVD, отсюда нестандартное разрешение картинки.
За весь предоставленый материал огромное спасибо EdzyowaСсылка на исходник-Качество: DVDRip [by VampireHanter]
Тип релиза: Без хардсаба
Формат видео: MKV-Видео: MPEG4 Video (H264), 676x558@962x558, ~1910, 25.000fps, 10bit
Аудио 1: Dolby AC3, 48kHz, ~192 Kbps, 2ch, Японский
Аудио 2: Dolby AC3, 48kHz, ~192 Kbps, 2ch, Японский (без голоса)
Аудио 3: Dolby AC3, 48KHz, ~192 Kbps, 2ch, Русский (двухголосная, внешним файлом)
Аудио 4: Dolby AC3, 48KHz, ~192 Kbps, 2ch, Русский (одноголосная, внешним файлом) [Визгунов]
Субтитры 1: SRT [Edzyowa], Русские (внешние)
Субтитры 2: ASS [Edzyowa], Русские (внешние)

Дополнительная информация о дорожке Визгунова

Предоставление исходника и очистка дорожки — ALEKS KV
Синхронизация — Edzyowa
Выложено для тех, кто когда-то смотрел в этом переводе и теперь хочет вспомнить ощущения от первого просмотра. Имейте в виду — Визгунов данное аниме переводил с английского дубляжа, который сам по себе очень далёк от оригинала. Так что сходство с японскими репликами 10—20%.
-

MediaInfo

GeneralUnique ID                      : 160190128503905254780699228783759452879 (0x78837F1C7708913D6A759ADAB125EACF)Complete name                  : C:\Users\Vampirehanter\Downloads\Sailor Moon\Sailor Moon R The Movie [16x9]\Sailor Moon R The Movie.mkvFormat                         : MatroskaFormat version                 : Version 4 / Version 2File size                      : 999 MiBDuration                       : 1 h 0 minOverall bit rate               : 2 292 kb/sEncoded date                   : UTC 2018-10-18 18:25:45Writing application            : mkvmerge v27.0.0 ('Metropolis') 64-bitWriting library                : libebml v1.3.6 + libmatroska v1.4.9
VideoID : 1Format : AVCFormat/Info : Advanced Video CodecFormat profile : High 10@L3.1Format settings : CABAC / 5 Ref FramesFormat settings, CABAC : YesFormat settings, ReFrames : 5 framesCodec ID : V_MPEG4/ISO/AVCDuration : 1 h 0 minBit rate : 1 910 kb/sWidth : 676 pixelsHeight : 558 pixelsDisplay aspect ratio : 1.724Original display aspect ratio : 1.211Frame rate mode : ConstantFrame rate : 25.000 FPSColor space : YUVChroma subsampling : 4:2:0Bit depth : 10 bitsScan type : ProgressiveBits/(Pixel*Frame) : 0.203Stream size : 831 MiB (83%)Writing library : x264 core 155 r2901 7d0ff22Encoding settings : cabac=1 / ref=5 / deblock=1:1:1 / analyse=0x3:0x133 / me=umh / subme=10 / psy=1 / psy_rd=1.00:0.00 / mixed_ref=0 / me_range=24 / chroma_me=1 / trellis=2 / 8x8dct=1 / cqm=0 / deadzone=21,11 / fast_pskip=0 / chroma_qp_offset=-2 / threads=6 / lookahead_threads=1 / sliced_threads=0 / nr=0 / decimate=1 / interlaced=0 / bluray_compat=0 / constrained_intra=0 / bframes=10 / b_pyramid=2 / b_adapt=2 / b_bias=0 / direct=3 / weightb=1 / open_gop=0 / weightp=2 / keyint=250 / keyint_min=25 / scenecut=40 / intra_refresh=0 / rc_lookahead=60 / rc=2pass / mbtree=1 / bitrate=1910 / ratetol=1.0 / qcomp=0.60 / qpmin=0 / qpmax=81 / qpstep=4 / cplxblur=20.0 / qblur=0.5 / vbv_maxrate=17500 / vbv_bufsize=17500 / nal_hrd=none / filler=0 / ip_ratio=1.40 / aq=1:1.00Language : JapaneseDefault : YesForced : No
Audio #1ID : 2Format : AC-3Format/Info : Audio Coding 3Commercial name : Dolby DigitalCodec ID : A_AC3Duration : 1 h 0 minBit rate mode : ConstantBit rate : 192 kb/sChannel(s) : 2 channelsChannel positions : Front: L RSampling rate : 48.0 kHzFrame rate : 31.250 FPS (1536 SPF)Bit depth : 16 bitsCompression mode : LossyStream size : 83.6 MiB (8%)Title : OriginalLanguage : JapaneseService kind : Complete MainDefault : YesForced : No
Audio #2ID : 3Format : AC-3Format/Info : Audio Coding 3Commercial name : Dolby DigitalCodec ID : A_AC3Duration : 1 h 0 minBit rate mode : ConstantBit rate : 192 kb/sChannel(s) : 2 channelsChannel positions : Front: L RSampling rate : 48.0 kHzFrame rate : 31.250 FPS (1536 SPF)Bit depth : 16 bitsCompression mode : LossyStream size : 83.7 MiB (8%)Title : Backing trackLanguage : JapaneseService kind : Complete MainDefault : NoForced : No
Menu00:00:00.000 : en:Chapter 0100:01:42.560 : en:Chapter 0200:11:57.260 : en:Chapter 0300:20:29.260 : en:Chapter 0400:31:36.440 : en:Chapter 0500:40:13.580 : en:Chapter 0600:45:48.780 : en:Chapter 0700:58:46.860 : en:Chapter 08

Скриншоты

-

Отличия

Улучшение качества видео-Данная раздача

alex9012

chame1eon

Yurasyk

Ze_us
- -Sailor Moon Special 1 | Sailor Moon Special 2-Sailor Moon R Movie | Sailor Moon S Movie | Sailor Moon Super S Movie | Sailor Moon Super S Plus
Вы не можете начинать темы
Вы не можете отвечать на сообщения
Вы не можете редактировать свои сообщения
Вы не можете удалять свои сообщения
Вы не можете голосовать в опросах
Вы не можете прикреплять файлы к сообщениям
Вы можете скачивать файлы
!ВНИМАНИЕ!

Сайт не предоставляет электронные версии произведений, а занимается лишь коллекционированием и каталогизацией ссылок, присылаемых и публикуемых на форуме нашими читателями. Если вы являетесь правообладателем какого-либо представленного материала и не желаете, чтобы ссылка на него находилась в нашем каталоге, свяжитесь с нами, и мы незамедлительно удалим ее. Файлы для обмена на трекере предоставлены пользователями сайта, и администрация не несет ответственности за их содержание. Просьба не заливать файлы, защищенные авторскими правами, а также файлы нелегального содержания!

Искали программы, игры, дополнения, музыка mp3, аниме, аудио книги, журналы? Добро пожаловать на свободный торрент трекер Torrents, у нас можно скачать бесплатно, без смс и регистрации и прочих ограничений лучшие, отборные сборки программ, игр. Скачать торрентом не составит труда даже не опытному пользователю. Раздачи ежедневно обновляются, только лучшие и качественные раздачи, подробные описания и скриншоты. Огромная коллекция программ для работы со звуком, графикой, дизайном, а так же множество плагинов и инструментов к ним с подробной инструкцией и рекомендациями. Прошивки для навигаторов, карты. Разнообразные игры, для Windows, Linux. В коллекцие есть и старые игры любых жанров, Rpg, Action, Shooter, strategy Множество дополнений, модификаций, сценариев для популярных игр в жанре экш, рпг, гонки, стратегии, логические игры. Множество аддонов и сценариев для Microsoft Flight Simulator Большая коллекция книг, учебников. Если нет возможности купить печатное издание - смело скачивайте цифровую версию книги или, быть может, журнала. Не любите читать - можно загрузить бесплатно аудикнигу. Для веб дизайнеров и программистов так же найдется множество специализированного софта, таких как: редакторы с подсветкой, среды программирования, компоненты, системы управления базами данных, разнообразные скрипты и шаблоны. Не так давно у нас появился материал для автолюбителей и владельцев мото - оригинальные и неоригинальные каталоги запчастей, книги и журналы по ремонту и обслуживанию, видеоуроки, статьи по чип тюнингу, прошивкам. Процедура получения контента элементарная, достаточно просто скачать торрент файл и добавить его в загрузку в вашем торрент клиенте. Если у вас нет специального торрент клиента, вы можете его скачать у нас.