Девичья Сила OVA-4 / Gall Force: Chikyuu Shou / Gall Force: Earth Chapter [OVA] [3 из 3] [Без хардсаба] [JAP+SUB] [1989, приключения, фантастика, DVDRip] 

Цитировать
Девичья Сила OVA-4 / Gall Force: Chikyuu Shou / Gall Force: Earth Chapter / ガルフォース 地球章
Страна: Япония
Год выпуска: 1989
Жанр: приключения, фантастика
Тип: OVA
Продолжительность: 3 эп. по 50 мин.
Режиссер: Акияма Кацухито
Студия: AIC, ARTMIC Studios
Описание: После завершения Операции "Исход", оставшиеся на Земле войска должны продержаться до прибытия подкреплений с Марса. За это время, Сэнди Ньюман и её подразделению придётся разобраться с квази-религиозной группой, называющей себя Гео Крис. Их главная цель - вновь заставить Землю цвести. Но Марс не знает об их планах и посылает войска, чтобы разобраться с ними.
© ANN
Доп. информация: Gall Force: Chikyuu Shou является логическим продолжением Rhea Gall Force.
Качество: DVDRip
Тип релиза: Без хардсаба
Формат видео: MKV
Релиз/Автор рипа: SAO
Видео: AVC, 720x480, 639 kb/s, 23.976 fps, 8 bit
Аудио: jpn(int), AAC, 98.8 kb/s, 48.0 kHz, 2 ch
Субтитры: rus(ext), ASS, перевод: Ingvar, редактура: LeoDreaM, Sa4ko aka Kiyoso

Серия состоит из

#1 Девичья Сила - Фильм - п/ф, начало цикла, 1986
#2 Девичья Сила OVA-1 - OVA (1 эп.), продолжение, 1987
#3 Девичья Сила OVA-2 - OVA (1 эп.), продолжение, 1988
#4 Девичья Сила OVA-3 - OVA (1 эп.), продолжение, 1989
#5 Девичья Сила OVA-4 - OVA (3 эп.), продолжение, 1989
#6 Девичья Сила OVA-5 - OVA (2 эп.), продолжение, 1991
#7 Девичья Сила OVA-6 - OVA (4 эп.), ремейк первой части серии, 1996

Подробные тех. данные

GeneralUnique ID                                : 308535904879667158767594090349258449655 (0xE81DDA937705C2C61FAC4B036665A2F7)Complete name                            : V:\1\MR\Gall Force\5\[SAO] Gall Force - Chikyuu Shou [DVDRip]\[SAO] Gall Force - Chikyuu Shou - 1 [DVDRip].mkvFormat                                   : MatroskaFormat version                           : Version 4File size                                : 248 MiBDuration                                 : 46 min 55 sOverall bit rate                         : 740 kb/sEncoded date                             : UTC 2018-10-21 09:38:01Writing application                      : mkvmerge v28.0.0 ('Voice In My Head') 64-bitWriting library                          : libebml v1.3.6 + libmatroska v1.4.9
VideoID : 1Format : AVCFormat/Info : Advanced Video CodecFormat profile : High@L4Format settings : CABAC / 16 Ref FramesFormat settings, CABAC : YesFormat settings, RefFrames : 16 framesCodec ID : V_MPEG4/ISO/AVCDuration : 46 min 55 sBit rate : 639 kb/sWidth : 720 pixelsHeight : 480 pixelsDisplay aspect ratio : 4:3Frame rate mode : ConstantFrame rate : 23.976 (24000/1001) FPSColor space : YUVChroma subsampling : 4:2:0Bit depth : 8 bitsScan type : ProgressiveBits/(Pixel*Frame) : 0.077Stream size : 214 MiB (86%)Writing library : x264 core 155 r2901 7d0ff22Encoding settings : cabac=1 / ref=16 / deblock=1:1:1 / analyse=0x3:0x133 / me=umh / subme=10 / psy=1 / psy_rd=0.40:0.00 / mixed_ref=1 / me_range=24 / chroma_me=1 / trellis=2 / 8x8dct=1 / cqm=0 / deadzone=21,11 / fast_pskip=1 / chroma_qp_offset=-2 / threads=6 / lookahead_threads=1 / sliced_threads=0 / nr=0 / decimate=1 / interlaced=0 / bluray_compat=0 / constrained_intra=0 / bframes=10 / b_pyramid=2 / b_adapt=2 / b_bias=0 / direct=3 / weightb=1 / open_gop=0 / weightp=2 / keyint=240 / keyint_min=23 / scenecut=40 / intra_refresh=0 / rc_lookahead=60 / rc=crf / mbtree=1 / crf=18.0 / qcomp=0.60 / qpmin=0 / qpmax=69 / qpstep=4 / ip_ratio=1.40 / aq=1:0.60Default : YesForced : No
AudioID : 2Format : AAC LCFormat/Info : Advanced Audio Codec Low ComplexityCodec ID : A_AAC-2Duration : 46 min 55 sBit rate : 98.8 kb/sChannel(s) : 2 channelsChannel layout : L RSampling rate : 48.0 kHzFrame rate : 46.875 FPS (1024 SPF)Compression mode : LossyStream size : 33.2 MiB (13%)Language : JapaneseDefault : YesForced : No
Menu00:00:00.000 : en:Chapter 100:09:41.300 : en:Chapter 200:15:50.234 : en:Chapter 300:24:02.935 : en:Chapter 400:31:53.803 : en:Chapter 500:43:23.537 : en:Chapter 600:46:55.338 : en:Chapter 7

Список эпизодов

Глава Земли 1
Глава Земли 2
Глава Земли 3

Скриншоты

Вы не можете начинать темы
Вы не можете отвечать на сообщения
Вы не можете редактировать свои сообщения
Вы не можете удалять свои сообщения
Вы не можете голосовать в опросах
Вы не можете прикреплять файлы к сообщениям
Вы можете скачивать файлы
!ВНИМАНИЕ!

Сайт не предоставляет электронные версии произведений, а занимается лишь коллекционированием и каталогизацией ссылок, присылаемых и публикуемых на форуме нашими читателями. Если вы являетесь правообладателем какого-либо представленного материала и не желаете, чтобы ссылка на него находилась в нашем каталоге, свяжитесь с нами, и мы незамедлительно удалим ее. Файлы для обмена на трекере предоставлены пользователями сайта, и администрация не несет ответственности за их содержание. Просьба не заливать файлы, защищенные авторскими правами, а также файлы нелегального содержания!

Искали программы, игры, дополнения, музыка mp3, аниме, аудио книги, журналы? Добро пожаловать на свободный торрент трекер Torrents, у нас можно скачать бесплатно, без смс и регистрации и прочих ограничений лучшие, отборные сборки программ, игр. Скачать торрентом не составит труда даже не опытному пользователю. Раздачи ежедневно обновляются, только лучшие и качественные раздачи, подробные описания и скриншоты. Огромная коллекция программ для работы со звуком, графикой, дизайном, а так же множество плагинов и инструментов к ним с подробной инструкцией и рекомендациями. Прошивки для навигаторов, карты. Разнообразные игры, для Windows, Linux. В коллекцие есть и старые игры любых жанров, Rpg, Action, Shooter, strategy Множество дополнений, модификаций, сценариев для популярных игр в жанре экш, рпг, гонки, стратегии, логические игры. Множество аддонов и сценариев для Microsoft Flight Simulator Большая коллекция книг, учебников. Если нет возможности купить печатное издание - смело скачивайте цифровую версию книги или, быть может, журнала. Не любите читать - можно загрузить бесплатно аудикнигу. Для веб дизайнеров и программистов так же найдется множество специализированного софта, таких как: редакторы с подсветкой, среды программирования, компоненты, системы управления базами данных, разнообразные скрипты и шаблоны. Не так давно у нас появился материал для автолюбителей и владельцев мото - оригинальные и неоригинальные каталоги запчастей, книги и журналы по ремонту и обслуживанию, видеоуроки, статьи по чип тюнингу, прошивкам. Процедура получения контента элементарная, достаточно просто скачать торрент файл и добавить его в загрузку в вашем торрент клиенте. Если у вас нет специального торрент клиента, вы можете его скачать у нас.