Связь Душ / Soul Link (Токоро Тосикацу) [TV][12 из 12][без хардсаба][RUS(int),JAP+SUB][2006, приключения, романтика, фантастика, драма, DVDRip] 

Цитировать
Связь Душ / Soul Link- Год выпуска: 2006
Страна: Япония
Жанр: приключения, романтика, фантастика, драма-Продолжительность: 12 эп. пo 25 мин.
Перевод: Любительский (одноголосый) - Animegroup
Русские субтитры: есть (by Rif Robin) в формате *.ass-Режиссер: Токоро Тосикацу
Автор оригинала: Судзухира Хиро
Студия: -Космическая станция «Ариес» является научно-исследовательским центром и тренировочной базой для кадетов-астронавтов, а по совместительству – гостиницей для звёздных туристов. Нагасэ Саяка, Айдзава Рёта и Морисаки Нао – курсанты, проходящие практику, Айдзава Сюхэй (старший брат Рёты) получил распределение на «Ариес», Ая Сугимото приехала навестить подругу. Все герои молоды и малоопытны, однако готовы к любым превратностям своей космической судьбы...© Анастасия Розанова, World Art-Качество: DVDRip (by [HKG])
Формат: AVI
Видео кодек: XviD
Аудио кодек: MP3
Видео: 864x480 пикселей, 29.970 кадр/сек, ~1800 кбит/сек, 8 bit
Аудио:
  • русский 48 кГц, 2 канала, 128 кбит/сек;
  • японский 48 кГц, 2 канала, 220 кбит/сек.
-

подробные тех.данные

General
Complete name :***\Soul Link\Soul Link - 01.avi
Format : AVI
Format/Info : Audio Video Interleave
File size : 390 MiB
Duration : 25 min
Overall bit rate mode : Variable
Overall bit rate : 2 145 kb/s
Writing application : VirtualDubMod 1.5.10.2 (build 2540/release)
Writing library : VirtualDubMod build 2540/release
Video
ID : 0
Format : MPEG-4 Visual
Format profile : Advanced Simple@L5
Format settings, BVOP : 1
Format settings, QPel : No
Format settings, GMC : No warppoints
Format settings, Matrix : Default (H.263)
Muxing mode : Packed bitstream
Codec ID : XVID
Codec ID/Hint : XviD
Duration : 25 min
Bit rate : 1 772 kb/s
Width : 864 pixels
Height : 480 pixels
Display aspect ratio : 16:9
Frame rate : 29.970 (29970/1000) FPS
Color space : YUV
Chroma subsampling : 4:2:0
Bit depth : 8 bits
Scan type : Progressive
Compression mode : Lossy
Bits/(Pixel*Frame) : 0.143
Stream size : 322 MiB (83%)
Writing library : XviD 1.1.0 (UTC 2005-11-22)
Audio #1
ID : 1
Format : MPEG Audio
Format version : Version 1
Format profile : Layer 3
Mode : Joint stereo
Mode extension : MS Stereo
Codec ID : 55
Codec ID/Hint : MP3
Duration : 25 min
Bit rate mode : Constant
Bit rate : 128 kb/s
Channel(s) : 2 channels
Sampling rate : 48.0 kHz
Compression mode : Lossy
Stream size : 23.3 MiB (6%)
Alignment : Aligned on interleaves
Interleave, duration : 33 ms (1.00 video frame)
Interleave, preload duratio : 504 ms
Writing library : LAME3.98r
Encoding settings : -m j -V 4 -q 2 -lowpass 17 -b 128
Audio #2
ID : 2
Format : MPEG Audio
Format version : Version 1
Format profile : Layer 3
Mode : Joint stereo
Codec ID : 55
Codec ID/Hint : MP3
Duration : 25 min
Bit rate mode : Variable
Bit rate : 220 kb/s
Channel(s) : 2 channels
Sampling rate : 48.0 kHz
Compression mode : Lossy
Stream size : 40.9 MiB (10%)
Alignment : Aligned on interleaves
Interleave, duration : 24 ms (0.72 video frame)
Interleave, preload duratio : 293 ms
Writing library : LAME3.92
Encoding settings : -m j -V 2 -q 2 -lowpass 19.5 --vbr-old
-

Чтобы смотреть с субтитрами...

Субтитры лежат отдельно в папке "Sub". Для того, чтобы смотреть с субтитрами и оригинальной звуковой дорожкой, вам нужно:
  • скопировать субтитры к нужной серии из папки сабов в папку с видео файлами;
  • в настройках вашего плеера подключить субтитры и переключить звуковую дорожку с русской на японскую.
Большая часть проигрывателей сама распознает дорожку субтитров, лежащую в виде внешнего файла.
-

эпизоды

01. Encounter
02. Contact
03. Outbreak
04. Breathing Space
05. Watershed
06. Farewell
07. Flux
08. Desire
09. Rouse
10. Stray
11. Mourning
12. Journey
-

Скриншоты

-
Вы не можете начинать темы
Вы не можете отвечать на сообщения
Вы не можете редактировать свои сообщения
Вы не можете удалять свои сообщения
Вы не можете голосовать в опросах
Вы не можете прикреплять файлы к сообщениям
Вы можете скачивать файлы
!ВНИМАНИЕ!

Сайт не предоставляет электронные версии произведений, а занимается лишь коллекционированием и каталогизацией ссылок, присылаемых и публикуемых на форуме нашими читателями. Если вы являетесь правообладателем какого-либо представленного материала и не желаете, чтобы ссылка на него находилась в нашем каталоге, свяжитесь с нами, и мы незамедлительно удалим ее. Файлы для обмена на трекере предоставлены пользователями сайта, и администрация не несет ответственности за их содержание. Просьба не заливать файлы, защищенные авторскими правами, а также файлы нелегального содержания!

Искали программы, игры, дополнения, музыка mp3, аниме, аудио книги, журналы? Добро пожаловать на свободный торрент трекер Torrents, у нас можно скачать бесплатно, без смс и регистрации и прочих ограничений лучшие, отборные сборки программ, игр. Скачать торрентом не составит труда даже не опытному пользователю. Раздачи ежедневно обновляются, только лучшие и качественные раздачи, подробные описания и скриншоты. Огромная коллекция программ для работы со звуком, графикой, дизайном, а так же множество плагинов и инструментов к ним с подробной инструкцией и рекомендациями. Прошивки для навигаторов, карты. Разнообразные игры, для Windows, Linux. В коллекцие есть и старые игры любых жанров, Rpg, Action, Shooter, strategy Множество дополнений, модификаций, сценариев для популярных игр в жанре экш, рпг, гонки, стратегии, логические игры. Множество аддонов и сценариев для Microsoft Flight Simulator Большая коллекция книг, учебников. Если нет возможности купить печатное издание - смело скачивайте цифровую версию книги или, быть может, журнала. Не любите читать - можно загрузить бесплатно аудикнигу. Для веб дизайнеров и программистов так же найдется множество специализированного софта, таких как: редакторы с подсветкой, среды программирования, компоненты, системы управления базами данных, разнообразные скрипты и шаблоны. Не так давно у нас появился материал для автолюбителей и владельцев мото - оригинальные и неоригинальные каталоги запчастей, книги и журналы по ремонту и обслуживанию, видеоуроки, статьи по чип тюнингу, прошивкам. Процедура получения контента элементарная, достаточно просто скачать торрент файл и добавить его в загрузку в вашем торрент клиенте. Если у вас нет специального торрент клиента, вы можете его скачать у нас.